  0
SECTION
  2
HEADER
  9
$ACADVER
  1
AC1015
  9
$ACADMAINTVER
 70
     6
  9
$DWGCODEPAGE
  3
ANSI_1252
  9
$INSBASE
 10
0.0
 20
0.0
 30
0.0
  9
$EXTMIN
 10
-0.00000000000011
 20
0.0
 30
0.0
  9
$EXTMAX
 10
297.0
 20
210.0000000000001
 30
0.0
  9
$LIMMIN
 10
0.0
 20
0.0
  9
$LIMMAX
 10
12.0
 20
9.0
  9
$ORTHOMODE
 70
     0
  9
$REGENMODE
 70
     1
  9
$FILLMODE
 70
     1
  9
$QTEXTMODE
 70
     0
  9
$MIRRTEXT
 70
     1
  9
$LTSCALE
 40
1.0
  9
$ATTMODE
 70
     1
  9
$TEXTSIZE
 40
0.2
  9
$TRACEWID
 40
0.05
  9
$TEXTSTYLE
  7
Standard
  9
$CLAYER
  8
0
  9
$CELTYPE
  6
ByLayer
  9
$CECOLOR
 62
   256
  9
$CELTSCALE
 40
1.0
  9
$DISPSILH
 70
     0
  9
$DIMSCALE
 40
1.0
  9
$DIMASZ
 40
0.18
  9
$DIMEXO
 40
0.0625
  9
$DIMDLI
 40
0.38
  9
$DIMRND
 40
0.0
  9
$DIMDLE
 40
0.0
  9
$DIMEXE
 40
0.18
  9
$DIMTP
 40
0.0
  9
$DIMTM
 40
0.0
  9
$DIMTXT
 40
0.18
  9
$DIMCEN
 40
0.09
  9
$DIMTSZ
 40
0.0
  9
$DIMTOL
 70
     0
  9
$DIMLIM
 70
     0
  9
$DIMTIH
 70
     1
  9
$DIMTOH
 70
     1
  9
$DIMSE1
 70
     0
  9
$DIMSE2
 70
     0
  9
$DIMTAD
 70
     0
  9
$DIMZIN
 70
     0
  9
$DIMBLK
  1

  9
$DIMASO
 70
     1
  9
$DIMSHO
 70
     1
  9
$DIMPOST
  1

  9
$DIMAPOST
  1

  9
$DIMALT
 70
     0
  9
$DIMALTD
 70
     2
  9
$DIMALTF
 40
25.4
  9
$DIMLFAC
 40
1.0
  9
$DIMTOFL
 70
     0
  9
$DIMTVP
 40
0.0
  9
$DIMTIX
 70
     0
  9
$DIMSOXD
 70
     0
  9
$DIMSAH
 70
     0
  9
$DIMBLK1
  1

  9
$DIMBLK2
  1

  9
$DIMSTYLE
  2
Standard
  9
$DIMCLRD
 70
     0
  9
$DIMCLRE
 70
     0
  9
$DIMCLRT
 70
     0
  9
$DIMTFAC
 40
1.0
  9
$DIMGAP
 40
0.09
  9
$DIMJUST
 70
     0
  9
$DIMSD1
 70
     0
  9
$DIMSD2
 70
     0
  9
$DIMTOLJ
 70
     1
  9
$DIMTZIN
 70
     0
  9
$DIMALTZ
 70
     0
  9
$DIMALTTZ
 70
     0
  9
$DIMUPT
 70
     0
  9
$DIMDEC
 70
     4
  9
$DIMTDEC
 70
     4
  9
$DIMALTU
 70
     2
  9
$DIMALTTD
 70
     2
  9
$DIMTXSTY
  7
Standard
  9
$DIMAUNIT
 70
     0
  9
$DIMADEC
 70
     0
  9
$DIMALTRND
 40
0.0
  9
$DIMAZIN
 70
     0
  9
$DIMDSEP
 70
    46
  9
$DIMATFIT
 70
     3
  9
$DIMFRAC
 70
     0
  9
$DIMLDRBLK
  1

  9
$DIMLUNIT
 70
     2
  9
$DIMLWD
 70
    -2
  9
$DIMLWE
 70
    -2
  9
$DIMTMOVE
 70
     0
  9
$LUNITS
 70
     2
  9
$LUPREC
 70
     4
  9
$SKETCHINC
 40
0.1
  9
$FILLETRAD
 40
0.5
  9
$AUNITS
 70
     0
  9
$AUPREC
 70
     0
  9
$MENU
  1
.
  9
$ELEVATION
 40
0.0
  9
$PELEVATION
 40
0.0
  9
$THICKNESS
 40
0.0
  9
$LIMCHECK
 70
     0
  9
$CHAMFERA
 40
0.5
  9
$CHAMFERB
 40
0.5
  9
$CHAMFERC
 40
1.0
  9
$CHAMFERD
 40
0.0
  9
$SKPOLY
 70
     0
  9
$TDCREATE
 40
2457163.637514144
  9
$TDUCREATE
 40
2457163.55418081
  9
$TDUPDATE
 40
2457163.637514502
  9
$TDUUPDATE
 40
2457163.554181169
  9
$TDINDWG
 40
0.0000000116
  9
$TDUSRTIMER
 40
0.0000000116
  9
$USRTIMER
 70
     1
  9
$ANGBASE
 50
0.0
  9
$ANGDIR
 70
     0
  9
$PDMODE
 70
     0
  9
$PDSIZE
 40
0.0
  9
$PLINEWID
 40
0.0
  9
$SPLFRAME
 70
     0
  9
$SPLINETYPE
 70
     6
  9
$SPLINESEGS
 70
     8
  9
$HANDSEED
  5
340
  9
$SURFTAB1
 70
     6
  9
$SURFTAB2
 70
     6
  9
$SURFTYPE
 70
     6
  9
$SURFU
 70
     6
  9
$SURFV
 70
     6
  9
$UCSBASE
  2

  9
$UCSNAME
  2

  9
$UCSORG
 10
0.0
 20
0.0
 30
0.0
  9
$UCSXDIR
 10
1.0
 20
0.0
 30
0.0
  9
$UCSYDIR
 10
0.0
 20
1.0
 30
0.0
  9
$UCSORTHOREF
  2

  9
$UCSORTHOVIEW
 70
     0
  9
$UCSORGTOP
 10
0.0
 20
0.0
 30
0.0
  9
$UCSORGBOTTOM
 10
0.0
 20
0.0
 30
0.0
  9
$UCSORGLEFT
 10
0.0
 20
0.0
 30
0.0
  9
$UCSORGRIGHT
 10
0.0
 20
0.0
 30
0.0
  9
$UCSORGFRONT
 10
0.0
 20
0.0
 30
0.0
  9
$UCSORGBACK
 10
0.0
 20
0.0
 30
0.0
  9
$PUCSBASE
  2

  9
$PUCSNAME
  2

  9
$PUCSORG
 10
0.0
 20
0.0
 30
0.0
  9
$PUCSXDIR
 10
1.0
 20
0.0
 30
0.0
  9
$PUCSYDIR
 10
0.0
 20
1.0
 30
0.0
  9
$PUCSORTHOREF
  2

  9
$PUCSORTHOVIEW
 70
     0
  9
$PUCSORGTOP
 10
0.0
 20
0.0
 30
0.0
  9
$PUCSORGBOTTOM
 10
0.0
 20
0.0
 30
0.0
  9
$PUCSORGLEFT
 10
0.0
 20
0.0
 30
0.0
  9
$PUCSORGRIGHT
 10
0.0
 20
0.0
 30
0.0
  9
$PUCSORGFRONT
 10
0.0
 20
0.0
 30
0.0
  9
$PUCSORGBACK
 10
0.0
 20
0.0
 30
0.0
  9
$USERI1
 70
     0
  9
$USERI2
 70
     0
  9
$USERI3
 70
     0
  9
$USERI4
 70
     0
  9
$USERI5
 70
     0
  9
$USERR1
 40
18.1
  9
$USERR2
 40
0.0
  9
$USERR3
 40
0.0
  9
$USERR4
 40
0.0
  9
$USERR5
 40
0.0
  9
$WORLDVIEW
 70
     1
  9
$SHADEDGE
 70
     3
  9
$SHADEDIF
 70
    70
  9
$TILEMODE
 70
     1
  9
$MAXACTVP
 70
    64
  9
$PINSBASE
 10
0.0
 20
0.0
 30
0.0
  9
$PLIMCHECK
 70
     0
  9
$PEXTMIN
 10
1.00000000000000E+20
 20
1.00000000000000E+20
 30
1.00000000000000E+20
  9
$PEXTMAX
 10
-1.00000000000000E+20
 20
-1.00000000000000E+20
 30
-1.00000000000000E+20
  9
$PLIMMIN
 10
0.0
 20
0.0
  9
$PLIMMAX
 10
12.0
 20
9.0
  9
$UNITMODE
 70
     0
  9
$VISRETAIN
 70
     1
  9
$PLINEGEN
 70
     0
  9
$PSLTSCALE
 70
     1
  9
$TREEDEPTH
 70
  3020
  9
$CMLSTYLE
  2
Standard
  9
$CMLJUST
 70
     0
  9
$CMLSCALE
 40
1.0
  9
$PROXYGRAPHICS
 70
     1
  9
$MEASUREMENT
 70
     1
  9
$CELWEIGHT
370
    -1
  9
$ENDCAPS
280
     0
  9
$JOINSTYLE
280
     0
  9
$LWDISPLAY
290
     0
  9
$INSUNITS
 70
     4
  9
$HYPERLINKBASE
  1

  9
$STYLESHEET
  1

  9
$XEDIT
290
     1
  9
$CEPSNTYPE
380
     0
  9
$PSTYLEMODE
290
     1
  9
$FINGERPRINTGUID
  2
{E5AF947E-FFF0-4CE1-AAA3-05CDA3671259}
  9
$VERSIONGUID
  2
{FAEB1C32-E019-11D5-929B-00C0DF256EC4}
  9
$EXTNAMES
290
     1
  9
$PSVPSCALE
 40
0.0
  9
$OLESTARTUP
290
     0
  0
ENDSEC
  0
SECTION
  2
CLASSES
  0
CLASS
  1
ACDBDICTIONARYWDFLT
  2
AcDbDictionaryWithDefault
  3
ObjectDBX Classes
 90
        0
280
     0
281
     0
  0
CLASS
  1
VISUALSTYLE
  2
AcDbVisualStyle
  3
ObjectDBX Classes
 90
     4095
280
     0
281
     0
  0
CLASS
  1
MATERIAL
  2
AcDbMaterial
  3
ObjectDBX Classes
 90
     1153
280
     0
281
     0
  0
CLASS
  1
DICTIONARYVAR
  2
AcDbDictionaryVar
  3
ObjectDBX Classes
 90
        0
280
     0
281
     0
  0
CLASS
  1
ACDBPLACEHOLDER
  2
AcDbPlaceHolder
  3
ObjectDBX Classes
 90
        0
280
     0
281
     0
  0
CLASS
  1
LAYOUT
  2
AcDbLayout
  3
ObjectDBX Classes
 90
        0
280
     0
281
     0
  0
ENDSEC
  0
SECTION
  2
TABLES
  0
TABLE
  2
VPORT
  5
8
330
0
100
AcDbSymbolTable
 70
     1
  0
VPORT
  5
29
330
8
100
AcDbSymbolTableRecord
100
AcDbViewportTableRecord
  2
*Active
 70
     0
 10
0.0
 20
0.0
 11
1.0
 21
1.0
 12
148.4999999999999
 22
105.0000000000001
 13
0.0
 23
0.0
 14
0.5
 24
0.5
 15
0.5
 25
0.5
 16
0.0
 26
0.0
 36
1.0
 17
0.0
 27
0.0
 37
0.0
 40
231.0000000000001
 41
1.60267857142857
 42
50.0
 43
0.0
 44
0.0
 50
0.0
 51
0.0
 71
     0
 72
   100
 73
     1
 74
     3
 75
     0
 76
     0
 77
     0
 78
     0
281
     0
 65
     1
110
0.0
120
0.0
130
0.0
111
1.0
121
0.0
131
0.0
112
0.0
122
1.0
132
0.0
 79
     0
146
0.0
  0
ENDTAB
  0
TABLE
  2
LTYPE
  5
5
330
0
100
AcDbSymbolTable
 70
     8
  0
LTYPE
  5
14
330
5
100
AcDbSymbolTableRecord
100
AcDbLinetypeTableRecord
  2
ByBlock
 70
     0
  3

 72
    65
 73
     0
 40
0.0
  0
LTYPE
  5
15
330
5
100
AcDbSymbolTableRecord
100
AcDbLinetypeTableRecord
  2
ByLayer
 70
     0
  3

 72
    65
 73
     0
 40
0.0
  0
LTYPE
  5
16
330
5
100
AcDbSymbolTableRecord
100
AcDbLinetypeTableRecord
  2
Continuous
 70
     0
  3
Solid line
 72
    65
 73
     0
 40
0.0
  0
LTYPE
  5
3F
330
5
100
AcDbSymbolTableRecord
100
AcDbLinetypeTableRecord
  2
DASHED
 70
     0
  3
Dashed
 72
    65
 73
     2
 40
15.0
 49
7.0
 74
     0
 49
-8.0
 74
     0
  0
LTYPE
  5
40
330
5
100
AcDbSymbolTableRecord
100
AcDbLinetypeTableRecord
  2
DOTTED
 70
     0
  3
Dotted
 72
    65
 73
     2
 40
1.0
 49
0.0
 74
     0
 49
-1.0
 74
     0
  0
LTYPE
  5
41
330
5
100
AcDbSymbolTableRecord
100
AcDbLinetypeTableRecord
  2
DOT_CENTER
 70
     0
  3
Dot_Center
 72
    65
 73
     4
 40
14.0
 49
12.0
 74
     0
 49
-1.0
 74
     0
 49
0.0
 74
     0
 49
-1.0
 74
     0
  0
LTYPE
  5
42
330
5
100
AcDbSymbolTableRecord
100
AcDbLinetypeTableRecord
  2
LONG_DASHED
 70
     0
  3
Long_Dashed
 72
    65
 73
     2
 40
15.0
 49
10.0
 74
     0
 49
-5.0
 74
     0
  0
LTYPE
  5
43
330
5
100
AcDbSymbolTableRecord
100
AcDbLinetypeTableRecord
  2
DASH_CENTER
 70
     0
  3
Dash_Center
 72
    65
 73
     4
 40
14.0
 49
11.0
 74
     0
 49
-1.0
 74
     0
 49
1.0
 74
     0
 49
-1.0
 74
     0
  0
LTYPE
  5
44
330
5
100
AcDbSymbolTableRecord
100
AcDbLinetypeTableRecord
  2
PHANTOM
 70
     0
  3
Phantom
 72
    65
 73
     6
 40
13.0
 49
10.0
 74
     0
 49
-1.0
 74
     0
 49
0.0
 74
     0
 49
-1.0
 74
     0
 49
0.0
 74
     0
 49
-1.0
 74
     0
  0
LTYPE
  5
45
330
5
100
AcDbSymbolTableRecord
100
AcDbLinetypeTableRecord
  2
CENTER_DASH_DASH
 70
     0
  3
Center_Dash_Dash
 72
    65
 73
     6
 40
14.0
 49
9.0
 74
     0
 49
-1.0
 74
     0
 49
1.0
 74
     0
 49
-1.0
 74
     0
 49
1.0
 74
     0
 49
-1.0
 74
     0
  0
ENDTAB
  0
TABLE
  2
LAYER
  5
2
330
0
100
AcDbSymbolTable
 70
     2
  0
LAYER
  5
10
330
2
100
AcDbSymbolTableRecord
100
AcDbLayerTableRecord
  2
0
 70
     0
 62
     7
  6
Continuous
370
    -3
390
F
  0
LAYER
  5
46
330
2
100
AcDbSymbolTableRecord
100
AcDbLayerTableRecord
  2
1
 70
     0
 62
     7
  6
Continuous
370
    -3
390
F
  0
ENDTAB
  0
TABLE
  2
STYLE
  5
3
330
0
100
AcDbSymbolTable
 70
     4
  0
STYLE
  5
11
330
3
100
AcDbSymbolTableRecord
100
AcDbTextStyleTableRecord
  2
Standard
 70
     0
 40
0.0
 41
1.0
 50
0.0
 71
     0
 42
0.2
  3
txt
  4

  0
STYLE
  5
2A7
330
3
100
AcDbSymbolTableRecord
100
AcDbTextStyleTableRecord
  2
CONVERTER_11
 70
     0
 40
0.0
 41
1.2
 50
0.0
 71
     0
 42
0.2
  3
ARIAL.TTF
  4

  0
STYLE
  5
2AA
330
3
100
AcDbSymbolTableRecord
100
AcDbTextStyleTableRecord
  2
CONVERTER_12
 70
     0
 40
0.0
 41
1.38
 50
0.0
 71
     0
 42
0.2
  3
ARIAL.TTF
  4

  0
STYLE
  5
2AE
330
3
100
AcDbSymbolTableRecord
100
AcDbTextStyleTableRecord
  2
CONVERTER_13
 70
     0
 40
0.0
 41
0.95
 50
0.0
 71
     0
 42
0.2
  3
simplex.shx
  4

  0
ENDTAB
  0
TABLE
  2
VIEW
  5
6
330
0
100
AcDbSymbolTable
 70
     0
  0
ENDTAB
  0
TABLE
  2
UCS
  5
7
330
0
100
AcDbSymbolTable
 70
     0
  0
ENDTAB
  0
TABLE
  2
APPID
  5
9
330
0
100
AcDbSymbolTable
 70
     1
  0
APPID
  5
12
330
9
100
AcDbSymbolTableRecord
100
AcDbRegAppTableRecord
  2
ACAD
 70
     0
  0
ENDTAB
  0
TABLE
  2
DIMSTYLE
  5
A
330
0
100
AcDbSymbolTable
 70
     9
100
AcDbDimStyleTable
  0
DIMSTYLE
105
27
330
A
100
AcDbSymbolTableRecord
100
AcDbDimStyleTableRecord
  2
Standard
 70
     0
178
     0
340
11
  0
DIMSTYLE
105
2C2
102
{ACAD_REACTORS
330
2C3
102
}
330
A
100
AcDbSymbolTableRecord
100
AcDbDimStyleTableRecord
  2
ME10_DIM_10
 70
     0
 41
3.0
 42
0.5
 44
1.0
 73
     0
 74
     0
 77
     1
 78
     8
140
3.0
147
2.0
172
     1
173
     1
174
     1
175
     1
176
     7
177
     7
271
     2
178
     7
271
     2
340
2AE
  0
DIMSTYLE
105
2CD
102
{ACAD_REACTORS
330
2CE
102
}
330
A
100
AcDbSymbolTableRecord
100
AcDbDimStyleTableRecord
  2
ME10_DIM_11
 70
     0
 41
3.0
 42
0.5
 44
1.0
 73
     0
 74
     0
 77
     1
 78
     8
140
3.0
147
2.0
172
     1
173
     1
174
     1
175
     1
176
     7
177
     7
271
     2
178
     7
271
     2
340
2AE
  0
DIMSTYLE
105
2D8
102
{ACAD_REACTORS
330
2D9
102
}
330
A
100
AcDbSymbolTableRecord
100
AcDbDimStyleTableRecord
  2
ME10_DIM_12
 70
     0
 41
3.0
 42
0.5
 44
1.0
 73
     0
 74
     0
 77
     1
 78
     8
140
3.0
147
2.0
172
     1
173
     1
174
     1
175
     1
176
     7
177
     7
271
     2
178
     7
271
     2
340
2AE
  0
DIMSTYLE
105
2E3
102
{ACAD_REACTORS
330
2E4
102
}
330
A
100
AcDbSymbolTableRecord
100
AcDbDimStyleTableRecord
  2
ME10_DIM_13
 70
     0
 41
3.0
 42
0.5
 44
1.0
 73
     0
 74
     0
 77
     1
 78
     8
140
3.0
147
2.0
172
     1
173
     1
174
     1
175
     1
176
     7
177
     7
271
     2
178
     7
271
     2
340
2AE
  0
DIMSTYLE
105
2EE
102
{ACAD_REACTORS
330
2EF
102
}
330
A
100
AcDbSymbolTableRecord
100
AcDbDimStyleTableRecord
  2
ME10_DIM_14
 70
     0
 41
3.0
 42
0.5
 44
1.0
 73
     0
 74
     0
 77
     1
 78
     8
140
3.0
147
2.0
172
     1
173
     1
174
     1
175
     1
176
     7
177
     7
271
     2
178
     7
271
     2
340
2AE
  0
DIMSTYLE
105
2F9
102
{ACAD_REACTORS
330
2FA
102
}
330
A
100
AcDbSymbolTableRecord
100
AcDbDimStyleTableRecord
  2
ME10_DIM_15
 70
     0
 41
3.0
 42
0.5
 44
1.0
 73
     0
 74
     0
 77
     1
 78
     8
140
3.0
147
2.0
172
     1
173
     1
174
     1
175
     1
176
     7
177
     7
271
     2
178
     7
271
     2
340
2AE
  0
DIMSTYLE
105
304
102
{ACAD_REACTORS
330
305
102
}
330
A
100
AcDbSymbolTableRecord
100
AcDbDimStyleTableRecord
  2
ME10_DIM_16
 70
     0
 41
3.0
 42
0.5
 44
1.0
 73
     0
 74
     0
 77
     1
 78
     8
140
3.0
147
2.0
172
     1
173
     1
174
     1
175
     1
176
     7
177
     7
271
     2
178
     7
271
     2
340
2AE
  0
DIMSTYLE
105
30F
102
{ACAD_REACTORS
330
310
102
}
330
A
100
AcDbSymbolTableRecord
100
AcDbDimStyleTableRecord
  2
ME10_DIM_17
 70
     0
 41
3.0
 42
0.5
 44
1.0
 73
     0
 74
     0
 77
     1
 78
     8
140
3.0
147
2.0
172
     1
173
     1
174
     1
175
     1
176
     7
177
     7
271
     2
178
     7
271
     2
340
2AE
  0
ENDTAB
  0
TABLE
  2
BLOCK_RECORD
  5
1
330
0
100
AcDbSymbolTable
 70
    10
  0
BLOCK_RECORD
  5
1F
330
1
100
AcDbSymbolTableRecord
100
AcDbBlockTableRecord
  2
*Model_Space
340
22
  0
BLOCK_RECORD
  5
1B
330
1
100
AcDbSymbolTableRecord
100
AcDbBlockTableRecord
  2
*Paper_Space
340
1E
  0
BLOCK_RECORD
  5
23
330
1
100
AcDbSymbolTableRecord
100
AcDbBlockTableRecord
  2
*Paper_Space0
340
26
  0
BLOCK_RECORD
  5
47
330
1
100
AcDbSymbolTableRecord
100
AcDbBlockTableRecord
  2
_dummy_frame
340
0
102
{BLKREFS
331
4A
102
}
  0
BLOCK_RECORD
  5
2B7
330
1
100
AcDbSymbolTableRecord
100
AcDbBlockTableRecord
  2
*D2
340
0
  0
BLOCK_RECORD
  5
2C4
330
1
100
AcDbSymbolTableRecord
100
AcDbBlockTableRecord
  2
*D3
340
0
  0
BLOCK_RECORD
  5
2CF
330
1
100
AcDbSymbolTableRecord
100
AcDbBlockTableRecord
  2
*D4
340
0
  0
BLOCK_RECORD
  5
2DA
330
1
100
AcDbSymbolTableRecord
100
AcDbBlockTableRecord
  2
*D5
340
0
  0
BLOCK_RECORD
  5
2E5
330
1
100
AcDbSymbolTableRecord
100
AcDbBlockTableRecord
  2
*D6
340
0
  0
BLOCK_RECORD
  5
2F0
330
1
100
AcDbSymbolTableRecord
100
AcDbBlockTableRecord
  2
*D7
340
0
  0
BLOCK_RECORD
  5
2FB
330
1
100
AcDbSymbolTableRecord
100
AcDbBlockTableRecord
  2
*D8
340
0
  0
BLOCK_RECORD
  5
306
330
1
100
AcDbSymbolTableRecord
100
AcDbBlockTableRecord
  2
*D9
340
0
  0
ENDTAB
  0
ENDSEC
  0
SECTION
  2
BLOCKS
  0
BLOCK
  5
20
330
1F
100
AcDbEntity
  8
0
100
AcDbBlockBegin
  2
*Model_Space
 70
     0
 10
0.0
 20
0.0
 30
0.0
  3
*Model_Space
  1

  0
ENDBLK
  5
21
330
1F
100
AcDbEntity
  8
0
100
AcDbBlockEnd
  0
BLOCK
  5
1C
330
1B
100
AcDbEntity
 67
     1
  8
0
100
AcDbBlockBegin
  2
*Paper_Space
 70
     0
 10
0.0
 20
0.0
 30
0.0
  3
*Paper_Space
  1

  0
ENDBLK
  5
1D
330
1B
100
AcDbEntity
 67
     1
  8
0
100
AcDbBlockEnd
  0
BLOCK
  5
24
330
23
100
AcDbEntity
  8
0
100
AcDbBlockBegin
  2
*Paper_Space0
 70
     0
 10
0.0
 20
0.0
 30
0.0
  3
*Paper_Space0
  1

  0
ENDBLK
  5
25
330
23
100
AcDbEntity
  8
0
100
AcDbBlockEnd
  0
BLOCK
  5
48
330
47
100
AcDbEntity
  8
0
100
AcDbBlockBegin
  2
_dummy_frame
 70
     0
 10
91.0277033482987
 20
5.00000000000001
 30
0.0
  3
_dummy_frame
  1

  0
POINT
  5
4B
330
47
100
AcDbEntity
  8
1
 62
     7
 60
     1
100
AcDbPoint
 10
91.0277033482987
 20
5.00000000000001
 30
0.0
  0
ENDBLK
  5
49
330
47
100
AcDbEntity
  8
0
100
AcDbBlockEnd
  0
BLOCK
  5
2C0
330
2B7
100
AcDbEntity
  8
0
100
AcDbBlockBegin
  2
*D2
 70
     1
 10
0.0
 20
0.0
 30
0.0
  3
*D2
  1

  0
LINE
  5
2B8
330
2B7
100
AcDbEntity
  8
1
  6
Continuous
 62
     7
100
AcDbLine
 10
253.0077218138219
 20
87.16792994915505
 30
0.0
 11
253.0077218138219
 21
93.16792994915505
 31
0.0
  0
LINE
  5
2B9
330
2B7
100
AcDbEntity
  8
1
  6
Continuous
 62
     7
100
AcDbLine
 10
253.0077218138219
 20
83.16792994915505
 30
0.0
 11
253.0077218138219
 21
87.16792994915505
 31
0.0
  0
LINE
  5
2BA
330
2B7
100
AcDbEntity
  8
1
  6
Continuous
 62
     7
100
AcDbLine
 10
253.0077218138219
 20
75.50065246154145
 30
0.0
 11
253.0077218138219
 21
83.16792994915505
 31
0.0
  0
LINE
  5
2BB
330
2B7
100
AcDbEntity
  8
1
  6
Continuous
 62
     7
100
AcDbLine
 10
235.9482611510227
 20
87.16792994915505
 30
0.0
 11
254.0077218138219
 21
87.16792994915505
 31
0.0
  0
LINE
  5
2BC
330
2B7
100
AcDbEntity
  8
1
  6
Continuous
 62
     7
100
AcDbLine
 10
238.9482611510227
 20
83.16792994915505
 30
0.0
 11
254.0077218138219
 21
83.16792994915505
 31
0.0
  0
SOLID
  5
2BD
330
2B7
100
AcDbEntity
  8
1
 62
     7
100
AcDbTrace
 10
253.4026793065841
 20
80.16792994915505
 30
0.0
 11
252.6127643210597
 21
80.16792994915505
 31
0.0
 12
253.0077218138219
 22
83.16792994915505
 32
0.0
 13
253.0077218138219
 23
83.16792994915505
 33
0.0
  0
SOLID
  5
2BE
330
2B7
100
AcDbEntity
  8
1
 62
     7
100
AcDbTrace
 10
252.6127643210597
 20
90.16792994915505
 30
0.0
 11
253.4026793065841
 21
90.16792994915505
 31
0.0
 12
253.0077218138219
 22
87.16792994915505
 32
0.0
 13
253.0077218138219
 23
87.16792994915505
 33
0.0
  0
MTEXT
  5
2BF
330
2B7
100
AcDbEntity
  8
1
 62
     7
100
AcDbMText
 10
251.0077218138219
 20
75.50065246154145
 30
0.0
 40
3.0
 41
0.0
 71
     7
 72
     1
  1
4
  7
CONVERTER_13
 11
0.0
 21
1.0
 31
0.0
 73
     1
 44
0.60024009603842
  0
ENDBLK
  5
2C1
330
2B7
100
AcDbEntity
  8
0
100
AcDbBlockEnd
  0
BLOCK
  5
2CB
330
2C4
100
AcDbEntity
  8
0
100
AcDbBlockBegin
  2
*D3
 70
     1
 10
0.0
 20
0.0
 30
0.0
  3
*D3
  1

  0
LINE
  5
2C5
330
2C4
100
AcDbEntity
  8
1
  6
Continuous
 62
     7
100
AcDbLine
 10
188.4482611510227
 20
48.16792994915505
 30
0.0
 11
238.4482611510227
 21
48.16792994915505
 31
0.0
  0
LINE
  5
2C6
330
2C4
100
AcDbEntity
  8
1
  6
Continuous
 62
     7
100
AcDbLine
 10
238.4482611510227
 20
82.66792994915505
 30
0.0
 11
238.4482611510227
 21
47.16792994915505
 31
0.0
  0
LINE
  5
2C7
330
2C4
100
AcDbEntity
  8
1
  6
Continuous
 62
     7
100
AcDbLine
 10
188.4482611510227
 20
82.66792994915505
 30
0.0
 11
188.4482611510227
 21
47.16792994915505
 31
0.0
  0
SOLID
  5
2C8
330
2C4
100
AcDbEntity
  8
1
 62
     7
100
AcDbTrace
 10
191.4482611510227
 20
48.56288744191724
 30
0.0
 11
191.4482611510227
 21
47.77297245639286
 31
0.0
 12
188.4482611510227
 22
48.16792994915505
 32
0.0
 13
188.4482611510227
 23
48.16792994915505
 33
0.0
  0
SOLID
  5
2C9
330
2C4
100
AcDbEntity
  8
1
 62
     7
100
AcDbTrace
 10
235.4482611510227
 20
47.77297245639286
 30
0.0
 11
235.4482611510227
 21
48.56288744191724
 31
0.0
 12
238.4482611510227
 22
48.16792994915505
 32
0.0
 13
238.4482611510227
 23
48.16792994915505
 33
0.0
  0
MTEXT
  5
2CA
330
2C4
100
AcDbEntity
  8
1
 62
     7
100
AcDbMText
 10
211.1982611510227
 20
50.16792994915505
 30
0.0
 40
3.0
 41
0.0
 71
     7
 72
     1
  1
50
  7
CONVERTER_13
 11
0.9999999999970619
 21
2.424068405545306E-6
 31
0.0
 73
     1
 44
0.60024009603842
  0
ENDBLK
  5
2CC
330
2C4
100
AcDbEntity
  8
0
100
AcDbBlockEnd
  0
BLOCK
  5
2D6
330
2CF
100
AcDbEntity
  8
0
100
AcDbBlockBegin
  2
*D4
 70
     1
 10
0.0
 20
0.0
 30
0.0
  3
*D4
  1

  0
LINE
  5
2D0
330
2CF
100
AcDbEntity
  8
1
  6
Continuous
 62
     7
100
AcDbLine
 10
193.4482611510227
 20
66.16792994915505
 30
0.0
 11
233.4482611510227
 21
66.16792994915505
 31
0.0
  0
LINE
  5
2D1
330
2CF
100
AcDbEntity
  8
1
  6
Continuous
 62
     7
100
AcDbLine
 10
233.4482611510227
 20
80.93304114824656
 30
0.0
 11
233.4482611510227
 21
65.16792994915505
 31
0.0
  0
LINE
  5
2D2
330
2CF
100
AcDbEntity
  8
1
  6
Continuous
 62
     7
100
AcDbLine
 10
193.4482611510227
 20
80.64076185028006
 30
0.0
 11
193.4482611510227
 21
65.16792994915505
 31
0.0
  0
SOLID
  5
2D3
330
2CF
100
AcDbEntity
  8
1
 62
     7
100
AcDbTrace
 10
196.4482611510227
 20
66.56288744191724
 30
0.0
 11
196.4482611510227
 21
65.77297245639286
 31
0.0
 12
193.4482611510227
 22
66.16792994915505
 32
0.0
 13
193.4482611510227
 23
66.16792994915505
 33
0.0
  0
SOLID
  5
2D4
330
2CF
100
AcDbEntity
  8
1
 62
     7
100
AcDbTrace
 10
230.4482611510227
 20
65.77297245639286
 30
0.0
 11
230.4482611510227
 21
66.56288744191724
 31
0.0
 12
233.4482611510227
 22
66.16792994915505
 32
0.0
 13
233.4482611510227
 23
66.16792994915505
 33
0.0
  0
MTEXT
  5
2D5
330
2CF
100
AcDbEntity
  8
1
 62
     7
100
AcDbMText
 10
211.1982611510227
 20
68.16792994915505
 30
0.0
 40
3.0
 41
0.0
 71
     7
 72
     1
  1
40
  7
CONVERTER_13
 11
0.9999999999970619
 21
2.424068405545306E-6
 31
0.0
 73
     1
 44
0.60024009603842
  0
ENDBLK
  5
2D7
330
2CF
100
AcDbEntity
  8
0
100
AcDbBlockEnd
  0
BLOCK
  5
2E1
330
2DA
100
AcDbEntity
  8
0
100
AcDbBlockBegin
  2
*D5
 70
     1
 10
0.0
 20
0.0
 30
0.0
  3
*D5
  1

  0
LINE
  5
2DB
330
2DA
100
AcDbEntity
  8
1
  6
Continuous
 62
     7
100
AcDbLine
 10
61.74824146504028
 20
66.16792994915505
 30
0.0
 11
109.7482414650403
 21
66.16792994915505
 31
0.0
  0
LINE
  5
2DC
330
2DA
100
AcDbEntity
  8
1
  6
Continuous
 62
     7
100
AcDbLine
 10
61.74824146504028
 20
81.13398801922087
 30
0.0
 11
61.74824146504028
 21
65.16792994915505
 31
0.0
  0
LINE
  5
2DD
330
2DA
100
AcDbEntity
  8
1
  6
Continuous
 62
     7
100
AcDbLine
 10
109.7482414650403
 20
81.27248256380756
 30
0.0
 11
109.7482414650403
 21
65.16792994915505
 31
0.0
  0
SOLID
  5
2DE
330
2DA
100
AcDbEntity
  8
1
 62
     7
100
AcDbTrace
 10
64.74824146504028
 20
66.56288744191724
 30
0.0
 11
64.74824146504028
 21
65.77297245639286
 31
0.0
 12
61.74824146504028
 22
66.16792994915505
 32
0.0
 13
61.74824146504028
 23
66.16792994915505
 33
0.0
  0
SOLID
  5
2DF
330
2DA
100
AcDbEntity
  8
1
 62
     7
100
AcDbTrace
 10
106.7482414650403
 20
65.77297245639286
 30
0.0
 11
106.7482414650403
 21
66.56288744191724
 31
0.0
 12
109.7482414650403
 22
66.16792994915505
 32
0.0
 13
109.7482414650403
 23
66.16792994915505
 33
0.0
  0
MTEXT
  5
2E0
330
2DA
100
AcDbEntity
  8
1
 62
     7
100
AcDbMText
 10
83.49824146504028
 20
68.16792994915505
 30
0.0
 40
3.0
 41
0.0
 71
     7
 72
     1
  1
48
  7
CONVERTER_13
 11
0.9999999999970619
 21
2.424068405545306E-6
 31
0.0
 73
     1
 44
0.60024009603842
  0
ENDBLK
  5
2E2
330
2DA
100
AcDbEntity
  8
0
100
AcDbBlockEnd
  0
BLOCK
  5
2EC
330
2E5
100
AcDbEntity
  8
0
100
AcDbBlockBegin
  2
*D6
 70
     1
 10
0.0
 20
0.0
 30
0.0
  3
*D6
  1

  0
LINE
  5
2E6
330
2E5
100
AcDbEntity
  8
1
  6
Continuous
 62
     7
100
AcDbLine
 10
128.2482414650404
 20
48.16792994915505
 30
0.0
 11
43.24824146504039
 21
48.16792994915505
 31
0.0
  0
LINE
  5
2E7
330
2E5
100
AcDbEntity
  8
1
  6
Continuous
 62
     7
100
AcDbLine
 10
128.2482414650404
 20
83.66792994915505
 30
0.0
 11
128.2482414650404
 21
47.16792994915505
 31
0.0
  0
LINE
  5
2E8
330
2E5
100
AcDbEntity
  8
1
  6
Continuous
 62
     7
100
AcDbLine
 10
43.24824146504039
 20
83.66792994915505
 30
0.0
 11
43.24824146504039
 21
47.16792994915505
 31
0.0
  0
SOLID
  5
2E9
330
2E5
100
AcDbEntity
  8
1
 62
     7
100
AcDbTrace
 10
125.2482414650404
 20
47.77297245639286
 30
0.0
 11
125.2482414650404
 21
48.56288744191724
 31
0.0
 12
128.2482414650404
 22
48.16792994915505
 32
0.0
 13
128.2482414650404
 23
48.16792994915505
 33
0.0
  0
SOLID
  5
2EA
330
2E5
100
AcDbEntity
  8
1
 62
     7
100
AcDbTrace
 10
46.24824146504039
 20
48.56288744191724
 30
0.0
 11
46.24824146504039
 21
47.77297245639286
 31
0.0
 12
43.24824146504039
 22
48.16792994915505
 32
0.0
 13
43.24824146504039
 23
48.16792994915505
 33
0.0
  0
MTEXT
  5
2EB
330
2E5
100
AcDbEntity
  8
1
 62
     7
100
AcDbMText
 10
83.34824146504039
 20
50.16792994915505
 30
0.0
 40
3.0
 41
0.0
 71
     7
 72
     1
  1
85
  7
CONVERTER_13
 11
0.9999999999970619
 21
2.424068405545306E-6
 31
0.0
 73
     1
 44
0.60024009603842
  0
ENDBLK
  5
2ED
330
2E5
100
AcDbEntity
  8
0
100
AcDbBlockEnd
  0
BLOCK
  5
2F7
330
2F0
100
AcDbEntity
  8
0
100
AcDbBlockBegin
  2
*D7
 70
     1
 10
0.0
 20
0.0
 30
0.0
  3
*D7
  1

  0
LINE
  5
2F1
330
2F0
100
AcDbEntity
  8
1
  6
Continuous
 62
     7
100
AcDbLine
 10
31.28982302015294
 20
113.9979299491551
 30
0.0
 11
31.28982302015294
 21
90.83792994915495
 31
0.0
  0
LINE
  5
2F2
330
2F0
100
AcDbEntity
  8
1
  6
Continuous
 62
     7
100
AcDbLine
 10
42.8482414650404
 20
113.9979299491551
 30
0.0
 11
30.28982302015294
 21
113.9979299491551
 31
0.0
  0
LINE
  5
2F3
330
2F0
100
AcDbEntity
  8
1
  6
Continuous
 62
     7
100
AcDbLine
 10
42.84824146504042
 20
90.83792994915495
 30
0.0
 11
30.28982302015294
 21
90.83792994915495
 31
0.0
  0
SOLID
  5
2F4
330
2F0
100
AcDbEntity
  8
1
 62
     7
100
AcDbTrace
 10
31.68478051291513
 20
110.9979299491551
 30
0.0
 11
30.89486552739075
 21
110.9979299491551
 31
0.0
 12
31.28982302015294
 22
113.9979299491551
 32
0.0
 13
31.28982302015294
 23
113.9979299491551
 33
0.0
  0
SOLID
  5
2F5
330
2F0
100
AcDbEntity
  8
1
 62
     7
100
AcDbTrace
 10
30.89486552739075
 20
93.83792994915495
 30
0.0
 11
31.68478051291513
 21
93.83792994915495
 31
0.0
 12
31.28982302015294
 22
90.83792994915495
 32
0.0
 13
31.28982302015294
 23
90.83792994915495
 33
0.0
  0
MTEXT
  5
2F6
330
2F0
100
AcDbEntity
  8
1
 62
     7
100
AcDbMText
 10
29.28982302015294
 20
98.26792994915499
 30
0.0
 40
3.0
 41
0.0
 71
     7
 72
     1
  1
PG21
  7
CONVERTER_13
 11
0.0
 21
1.0
 31
0.0
 73
     1
 44
0.60024009603842
  0
ENDBLK
  5
2F8
330
2F0
100
AcDbEntity
  8
0
100
AcDbBlockEnd
  0
BLOCK
  5
302
330
2FB
100
AcDbEntity
  8
0
100
AcDbBlockBegin
  2
*D8
 70
     1
 10
0.0
 20
0.0
 30
0.0
  3
*D8
  1

  0
LINE
  5
2FC
330
2FB
100
AcDbEntity
  8
1
  6
Continuous
 62
     7
100
AcDbLine
 10
251.4781159335802
 20
167.4854414443494
 30
0.0
 11
188.4482611510228
 21
167.4854414443494
 31
0.0
  0
LINE
  5
2FD
330
2FB
100
AcDbEntity
  8
1
  6
Continuous
 62
     7
100
AcDbLine
 10
251.4781159335802
 20
125.9679299491551
 30
0.0
 11
251.4781159335802
 21
168.4854414443494
 31
0.0
  0
LINE
  5
2FE
330
2FB
100
AcDbEntity
  8
1
  6
Continuous
 62
     7
100
AcDbLine
 10
188.4482611510228
 20
83.66792994915505
 30
0.0
 11
188.4482611510228
 21
168.4854414443494
 31
0.0
  0
SOLID
  5
2FF
330
2FB
100
AcDbEntity
  8
1
 62
     7
100
AcDbTrace
 10
248.4781159335802
 20
167.0904839515872
 30
0.0
 11
248.4781159335802
 21
167.8803989371116
 31
0.0
 12
251.4781159335802
 22
167.4854414443494
 32
0.0
 13
251.4781159335802
 23
167.4854414443494
 33
0.0
  0
SOLID
  5
300
330
2FB
100
AcDbEntity
  8
1
 62
     7
100
AcDbTrace
 10
191.4482611510228
 20
167.8803989371116
 30
0.0
 11
191.4482611510228
 21
167.0904839515872
 31
0.0
 12
188.4482611510228
 22
167.4854414443494
 32
0.0
 13
188.4482611510228
 23
167.4854414443494
 33
0.0
  0
MTEXT
  5
301
330
2FB
100
AcDbEntity
  8
1
 62
     7
100
AcDbMText
 10
217.7131885423015
 20
169.4854414443494
 30
0.0
 40
3.0
 41
0.0
 71
     7
 72
     1
  1
63
  7
CONVERTER_13
 11
0.9999999999970619
 21
2.424068405545306E-6
 31
0.0
 73
     1
 44
0.60024009603842
  0
ENDBLK
  5
303
330
2FB
100
AcDbEntity
  8
0
100
AcDbBlockEnd
  0
BLOCK
  5
30D
330
306
100
AcDbEntity
  8
0
100
AcDbBlockBegin
  2
*D9
 70
     1
 10
0.0
 20
0.0
 30
0.0
  3
*D9
  1

  0
LINE
  5
307
330
306
100
AcDbEntity
  8
1
  6
Continuous
 62
     7
100
AcDbLine
 10
262.1107713401809
 20
135.1679299491552
 30
0.0
 11
262.1107713401809
 21
83.16792994915501
 31
0.0
  0
LINE
  5
308
330
306
100
AcDbEntity
  8
1
  6
Continuous
 62
     7
100
AcDbLine
 10
235.9482611510227
 20
83.16792994915501
 30
0.0
 11
263.1107713401809
 21
83.16792994915501
 31
0.0
  0
LINE
  5
309
330
306
100
AcDbEntity
  8
1
  6
Continuous
 62
     7
100
AcDbLine
 10
214.5261668277059
 20
135.1679299491552
 30
0.0
 11
263.1107713401809
 21
135.1679299491552
 31
0.0
  0
SOLID
  5
30A
330
306
100
AcDbEntity
  8
1
 62
     7
100
AcDbTrace
 10
262.5057288329431
 20
132.1679299491552
 30
0.0
 11
261.7158138474188
 21
132.1679299491552
 31
0.0
 12
262.1107713401809
 22
135.1679299491552
 32
0.0
 13
262.1107713401809
 23
135.1679299491552
 33
0.0
  0
SOLID
  5
30B
330
306
100
AcDbEntity
  8
1
 62
     7
100
AcDbTrace
 10
261.7158138474188
 20
86.16792994915501
 30
0.0
 11
262.5057288329431
 21
86.16792994915501
 31
0.0
 12
262.1107713401809
 22
83.16792994915501
 32
0.0
 13
262.1107713401809
 23
83.16792994915501
 33
0.0
  0
MTEXT
  5
30C
330
306
100
AcDbEntity
  8
1
 62
     7
100
AcDbMText
 10
260.1107713401809
 20
106.9179299491551
 30
0.0
 40
3.0
 41
0.0
 71
     7
 72
     1
  1
52
  7
CONVERTER_13
 11
0.0
 21
1.0
 31
0.0
 73
     1
 44
0.60024009603842
  0
ENDBLK
  5
30E
330
306
100
AcDbEntity
  8
0
100
AcDbBlockEnd
  0
ENDSEC
  0
SECTION
  2
ENTITIES
  0
INSERT
  5
4A
330
1F
100
AcDbEntity
  8
1
100
AcDbBlockReference
  2
_dummy_frame
 10
91.0277033482987
 20
5.00000000000001
 30
0.0
  0
LINE
  5
4C
330
1F
100
AcDbEntity
  8
1
  6
Continuous
 62
     7
100
AcDbLine
 10
108.0
 20
4.99999999999989
 30
0.0
 11
108.0
 21
40.0
 31
0.0
  0
LINE
  5
4D
330
1F
100
AcDbEntity
  8
1
  6
Continuous
 62
     7
100
AcDbLine
 10
108.0
 20
20.0
 30
0.0
 11
292.0
 21
20.0
 31
0.0
  0
LINE
  5
4E
330
1F
100
AcDbEntity
  8
1
  6
Continuous
 62
     7
100
AcDbLine
 10
4.99999999999977
 20
189.0
 30
0.0
 11
4.99999999999977
 21
5.0
 31
0.0
  0
LINE
  5
4F
330
1F
100
AcDbEntity
  8
1
  6
Continuous
 62
     7
100
AcDbLine
 10
133.0000000000001
 20
35.0
 30
0.0
 11
133.0000000000001
 21
40.0
 31
0.0
  0
LINE
  5
50
330
1F
100
AcDbEntity
  8
1
  6
Continuous
 62
     7
100
AcDbLine
 10
115.0
 20
35.0
 30
0.0
 11
115.0
 21
40.0
 31
0.0
  0
LINE
  5
51
330
1F
100
AcDbEntity
  8
1
  6
Continuous
 62
     7
100
AcDbLine
 10
108.0
 20
40.0
 30
0.0
 11
292.0
 21
40.0
 31
0.0
  0
LINE
  5
52
330
1F
100
AcDbEntity
  8
1
  6
Continuous
 62
     7
100
AcDbLine
 10
133.0000000000001
 20
30.0
 30
0.0
 11
133.0000000000001
 21
35.0
 31
0.0
  0
LINE
  5
53
330
1F
100
AcDbEntity
  8
1
  6
Continuous
 62
     7
100
AcDbLine
 10
115.0
 20
30.0
 30
0.0
 11
115.0
 21
35.0
 31
0.0
  0
LINE
  5
54
330
1F
100
AcDbEntity
  8
1
  6
Continuous
 62
     7
100
AcDbLine
 10
108.0
 20
35.0
 30
0.0
 11
292.0
 21
35.0
 31
0.0
  0
LINE
  5
55
330
1F
100
AcDbEntity
  8
1
  6
Continuous
 62
     7
100
AcDbLine
 10
133.0000000000001
 20
25.0
 30
0.0
 11
133.0000000000001
 21
30.0
 31
0.0
  0
LINE
  5
56
330
1F
100
AcDbEntity
  8
1
  6
Continuous
 62
     7
100
AcDbLine
 10
115.0
 20
25.0
 30
0.0
 11
115.0
 21
30.0
 31
0.0
  0
LINE
  5
57
330
1F
100
AcDbEntity
  8
1
  6
Continuous
 62
     7
100
AcDbLine
 10
108.0
 20
30.0
 30
0.0
 11
292.0
 21
30.0
 31
0.0
  0
LINE
  5
58
330
1F
100
AcDbEntity
  8
1
  6
Continuous
 62
     7
100
AcDbLine
 10
133.0000000000001
 20
20.0
 30
0.0
 11
133.0000000000001
 21
25.0
 31
0.0
  0
LINE
  5
59
330
1F
100
AcDbEntity
  8
1
  6
Continuous
 62
     7
100
AcDbLine
 10
115.0
 20
20.0
 30
0.0
 11
115.0
 21
25.0
 31
0.0
  0
LINE
  5
5A
330
1F
100
AcDbEntity
  8
1
  6
Continuous
 62
     7
100
AcDbLine
 10
108.0
 20
25.0
 30
0.0
 11
292.0
 21
25.0
 31
0.0
  0
LINE
  5
5B
102
{ACAD_REACTORS
330
311
102
}
330
1F
100
AcDbEntity
  8
1
  6
Continuous
 62
     7
100
AcDbLine
 10
282.8428748399058
 20
10.55800208038033
 30
0.0
 11
281.5095415065725
 21
9.78877131114973
 31
0.0
  0
LINE
  5
5C
102
{ACAD_REACTORS
330
311
102
}
330
1F
100
AcDbEntity
  8
1
  6
Continuous
 62
     7
100
AcDbLine
 10
281.6763006887427
 20
10.65463653264794
 30
0.0
 11
282.5097265375795
 21
11.13545913774624
 31
0.0
  0
LINE
  5
5D
102
{ACAD_REACTORS
330
311
102
}
330
1F
100
AcDbEntity
  8
1
  6
Continuous
 62
     7
100
AcDbLine
 10
281.6763006887427
 20
12.16666666666663
 30
0.0
 11
281.6763006887427
 21
10.65463653264794
 31
0.0
  0
LINE
  5
5E
102
{ACAD_REACTORS
330
311
102
}
330
1F
100
AcDbEntity
  8
1
  6
Continuous
 62
     7
100
AcDbLine
 10
282.6763006887427
 20
12.16666666666663
 30
0.0
 11
281.6763006887427
 21
12.16666666666663
 31
0.0
  0
LINE
  5
5F
102
{ACAD_REACTORS
330
311
102
}
330
1F
100
AcDbEntity
  8
1
  6
Continuous
 62
     7
100
AcDbLine
 10
281.6763006887427
 20
12.83333333333326
 30
0.0
 11
282.6763006887427
 21
12.83333333333326
 31
0.0
  0
LINE
  5
60
102
{ACAD_REACTORS
330
311
102
}
330
1F
100
AcDbEntity
  8
1
  6
Continuous
 62
     7
100
AcDbLine
 10
281.6763006887427
 20
14.34536346735195
 30
0.0
 11
281.6763006887427
 21
12.83333333333326
 31
0.0
  0
LINE
  5
61
102
{ACAD_REACTORS
330
311
102
}
330
1F
100
AcDbEntity
  8
1
  6
Continuous
 62
     7
100
AcDbLine
 10
282.5097265375795
 20
13.86454086225376
 30
0.0
 11
281.6763006887427
 21
14.34536346735195
 31
0.0
  0
LINE
  5
62
102
{ACAD_REACTORS
330
311
102
}
330
1F
100
AcDbEntity
  8
1
  6
Continuous
 62
     7
100
AcDbLine
 10
281.5095415065725
 20
15.21122868885027
 30
0.0
 11
282.8428748399058
 21
14.44199791961944
 31
0.0
  0
LINE
  5
63
102
{ACAD_REACTORS
330
312
102
}
330
1F
100
AcDbEntity
  8
1
  6
Continuous
 62
     7
100
AcDbLine
 10
274.3429673554093
 20
10.84673060906323
 30
0.0
 11
274.3429673554093
 21
14.15326939093666
 31
0.0
  0
LINE
  5
64
102
{ACAD_REACTORS
330
312
102
}
330
1F
100
AcDbEntity
  8
1
  6
Continuous
 62
     7
100
AcDbLine
 10
275.0096340220759
 20
11.0392519172633
 30
0.0
 11
275.0096340220759
 21
10.84673060906323
 31
0.0
  0
LINE
  5
65
102
{ACAD_REACTORS
330
312
102
}
330
1F
100
AcDbEntity
  8
1
  6
Continuous
 62
     7
100
AcDbLine
 10
275.0096340220759
 20
14.15326939093666
 30
0.0
 11
275.0096340220759
 21
11.0392519172633
 31
0.0
  0
LINE
  5
66
102
{ACAD_REACTORS
330
313
102
}
330
1F
100
AcDbEntity
  8
1
  6
Continuous
 62
     7
100
AcDbLine
 10
278.1763932042461
 20
8.44261746499581
 30
0.0
 11
276.009819053083
 21
9.69256409066691
 31
0.0
  0
LINE
  5
67
102
{ACAD_REACTORS
330
313
102
}
330
1F
100
AcDbEntity
  8
1
  6
Continuous
 62
     7
100
AcDbLine
 10
276.3429673554093
 20
10.2700211480327
 30
0.0
 11
278.5095415065725
 21
9.0200745223616
 31
0.0
  0
LINE
  5
68
102
{ACAD_REACTORS
330
313
102
}
330
1F
100
AcDbEntity
  8
1
  6
Continuous
 62
     7
100
AcDbLine
 10
276.3429673554093
 20
14.92250016016737
 30
0.0
 11
276.3429673554093
 21
10.2700211480327
 31
0.0
  0
LINE
  5
69
102
{ACAD_REACTORS
330
313
102
}
330
1F
100
AcDbEntity
  8
1
  6
Continuous
 62
     7
100
AcDbLine
 10
275.6763006887427
 20
10.27002114803258
 30
0.0
 11
275.6763006887427
 21
14.92250016016737
 31
0.0
  0
LINE
  5
6A
102
{ACAD_REACTORS
330
314
102
}
330
1F
100
AcDbEntity
  8
1
  6
Continuous
 62
     7
100
AcDbLine
 10
279.848533671786
 20
15.86370041827229
 30
0.0
 11
278.6763006887427
 21
13.83333333333326
 31
0.0
  0
LINE
  5
6B
102
{ACAD_REACTORS
330
314
102
}
330
1F
100
AcDbEntity
  8
1
  6
Continuous
 62
     7
100
AcDbLine
 10
280.3429673554093
 20
9.3082690706018
 30
0.0
 11
280.3429673554093
 21
15.73121731203457
 31
0.0
  0
LINE
  5
6C
102
{ACAD_REACTORS
330
314
102
}
330
1F
100
AcDbEntity
  8
1
  6
Continuous
 62
     7
100
AcDbLine
 10
279.6763006887427
 20
12.5
 30
0.0
 11
279.6763006887427
 21
9.3082690706018
 31
0.0
  0
LINE
  5
6D
102
{ACAD_REACTORS
330
314
102
}
330
1F
100
AcDbEntity
  8
1
  6
Continuous
 62
     7
100
AcDbLine
 10
277.6763006887427
 20
10.84758507263291
 30
0.0
 11
277.6763006887427
 21
12.5
 31
0.0
  0
LINE
  5
6E
102
{ACAD_REACTORS
330
314
102
}
330
1F
100
AcDbEntity
  8
1
  6
Continuous
 62
     7
100
AcDbLine
 10
277.0096340220759
 20
12.5
 30
0.0
 11
277.0096340220759
 21
10.84758507263291
 31
0.0
  0
LINE
  5
6F
102
{ACAD_REACTORS
330
314
102
}
330
1F
100
AcDbEntity
  8
1
  6
Continuous
 62
     7
100
AcDbLine
 10
277.5040677056994
 20
15.86370041827229
 30
0.0
 11
278.6763006887427
 21
13.83333333333326
 31
0.0
  0
LINE
  5
70
102
{ACAD_REACTORS
330
314
102
}
330
1F
100
AcDbEntity
  8
1
  6
Continuous
 62
     7
100
AcDbLine
 10
277.0096340220759
 20
12.5
 30
0.0
 11
277.0096340220759
 21
15.73121731203457
 31
0.0
  0
LINE
  5
71
330
1F
100
AcDbEntity
  8
1
  6
Continuous
 62
     7
100
AcDbLine
 10
278.6763006887427
 20
7.5
 30
0.0
 11
270.2598654136011
 21
12.35563573565855
 31
0.0
  0
LINE
  5
72
330
1F
100
AcDbEntity
  8
1
  6
Continuous
 62
     7
100
AcDbLine
 10
287.0927359638841
 20
12.35563573565855
 30
0.0
 11
278.6763006887427
 21
7.5
 31
0.0
  0
LINE
  5
73
330
1F
100
AcDbEntity
  8
1
  6
Continuous
 62
     7
100
AcDbLine
 10
278.6763006887427
 20
17.5
 30
0.0
 11
287.0927359638841
 21
12.64436426434133
 31
0.0
  0
LINE
  5
74
330
1F
100
AcDbEntity
  8
1
  6
Continuous
 62
     7
100
AcDbLine
 10
270.2598654136011
 20
12.64436426434133
 30
0.0
 11
278.6763006887427
 21
17.5
 31
0.0
  0
LINE
  5
75
102
{ACAD_REACTORS
330
314
102
}
330
1F
100
AcDbEntity
  8
1
  6
Continuous
 62
     7
100
AcDbLine
 10
277.6763006887427
 20
14.23205080756884
 30
0.0
 11
277.6763006887427
 21
12.5
 31
0.0
  0
LINE
  5
76
102
{ACAD_REACTORS
330
314
102
}
330
1F
100
AcDbEntity
  8
1
  6
Continuous
 62
     7
100
AcDbLine
 10
278.5319631214452
 20
12.75
 30
0.0
 11
277.6763006887427
 21
14.23205080756884
 31
0.0
  0
LINE
  5
77
102
{ACAD_REACTORS
330
314
102
}
330
1F
100
AcDbEntity
  8
1
  6
Continuous
 62
     7
100
AcDbLine
 10
279.6763006887427
 20
14.23205080756884
 30
0.0
 11
278.8206382560401
 21
12.75
 31
0.0
  0
LINE
  5
78
102
{ACAD_REACTORS
330
314
102
}
330
1F
100
AcDbEntity
  8
1
  6
Continuous
 62
     7
100
AcDbLine
 10
279.6763006887427
 20
12.5
 30
0.0
 11
279.6763006887427
 21
14.23205080756884
 31
0.0
  0
LINE
  5
79
102
{ACAD_REACTORS
330
311
102
}
330
1F
100
AcDbEntity
  8
1
  6
Continuous
 62
     7
100
AcDbLine
 10
281.0096340220761
 20
10.07749983983263
 30
0.0
 11
281.0096340220761
 21
14.92250016016737
 31
0.0
  0
LINE
  5
7A
330
1F
100
AcDbEntity
  8
1
  6
Continuous
 62
     7
100
AcDbLine
 10
292.0
 20
189.0
 30
0.0
 11
4.99999999999977
 21
189.0
 31
0.0
  0
LINE
  5
7B
330
1F
100
AcDbEntity
  8
1
  6
Continuous
 62
     7
100
AcDbLine
 10
292.0
 20
5.0
 30
0.0
 11
292.0
 21
189.0
 31
0.0
  0
LINE
  5
7C
330
1F
100
AcDbEntity
  8
1
  6
Continuous
 62
     7
100
AcDbLine
 10
4.99999999999977
 20
5.0
 30
0.0
 11
292.0
 21
5.0
 31
0.0
  0
LINE
  5
7D
330
1F
100
AcDbEntity
  8
1
  6
Continuous
 62
     7
100
AcDbLine
 10
297.0
 20
0.0
 30
0.0
 11
297.0
 21
210.0000000000001
 31
0.0
  0
LINE
  5
7E
330
1F
100
AcDbEntity
  8
1
  6
Continuous
 62
     7
100
AcDbLine
 10
297.0
 20
210.0000000000001
 30
0.0
 11
-0.00000000000011
 21
210.0000000000001
 31
0.0
  0
LINE
  5
7F
330
1F
100
AcDbEntity
  8
1
  6
Continuous
 62
     7
100
AcDbLine
 10
-0.00000000000011
 20
210.0000000000001
 30
0.0
 11
-0.00000000000011
 21
0.0
 31
0.0
  0
LINE
  5
80
330
1F
100
AcDbEntity
  8
1
  6
Continuous
 62
     7
100
AcDbLine
 10
-0.00000000000011
 20
0.0
 30
0.0
 11
297.0
 21
0.0
 31
0.0
  0
LINE
  5
81
330
1F
100
AcDbEntity
  8
1
  6
Continuous
 62
     7
100
AcDbLine
 10
148.4999999999997
 20
210.0000000000001
 30
0.0
 11
148.4999999999997
 21
195.0000000000001
 31
0.0
  0
LINE
  5
82
330
1F
100
AcDbEntity
  8
1
  6
Continuous
 62
     7
100
AcDbLine
 10
138.0
 20
20.0
 30
0.0
 11
138.0
 21
5.0
 31
0.0
  0
LINE
  5
83
330
1F
100
AcDbEntity
  8
1
  6
Continuous
 62
     7
100
AcDbLine
 10
265.3526013774854
 20
20.0
 30
0.0
 11
265.3526013774854
 21
5.0
 31
0.0
  0
LINE
  5
84
330
1F
100
AcDbEntity
  8
1
  6
Continuous
 62
     7
100
AcDbLine
 10
248.0
 20
20.0
 30
0.0
 11
248.0
 21
5.0
 31
0.0
  0
LINE
  5
85
330
1F
100
AcDbEntity
  8
1
  6
Continuous
 62
     7
100
AcDbLine
 10
108.0
 20
14.99999999999989
 30
0.0
 11
138.0
 21
14.99999999999989
 31
0.0
  0
LINE
  5
86
330
1F
100
AcDbEntity
  8
1
  6
Continuous
 62
     7
100
AcDbLine
 10
108.0
 20
9.99999999999986
 30
0.0
 11
138.0
 21
9.99999999999986
 31
0.0
  0
LINE
  5
87
330
1F
100
AcDbEntity
  8
0
  6
Continuous
 62
     7
100
AcDbLine
 10
228.3959768101178
 20
106.7825269575308
 30
0.0
 11
228.1928687514113
 21
130.0564052351143
 31
0.0
  0
LINE
  5
88
330
1F
100
AcDbEntity
  8
0
  6
Continuous
 62
     7
100
AcDbLine
 10
198.7482611510228
 20
135.1679299491551
 30
0.0
 11
205.2480136509868
 21
135.1679299491551
 31
0.0
  0
LINE
  5
89
330
1F
100
AcDbEntity
  8
0
  6
Continuous
 62
     7
100
AcDbLine
 10
198.7482611510228
 20
135.1679299491551
 30
0.0
 11
198.5005454919273
 21
106.7825269575308
 31
0.0
  0
LINE
  5
8A
330
1F
100
AcDbEntity
  8
0
  6
Continuous
 62
     7
100
AcDbLine
 10
226.0482611510226
 20
83.16792994915505
 30
0.0
 11
226.0482611510226
 21
84.16792994915505
 31
0.0
  0
LINE
  5
8B
330
1F
100
AcDbEntity
  8
0
  6
Continuous
 62
     7
100
AcDbLine
 10
198.1543059108607
 20
84.16792994915505
 30
0.0
 11
200.8482611510227
 21
84.16792994915505
 31
0.0
  0
LINE
  5
8C
330
1F
100
AcDbEntity
  8
0
  6
Continuous
 62
     7
100
AcDbLine
 10
200.8482611510227
 20
84.16792994915505
 30
0.0
 11
200.8482611510227
 21
83.16792994915505
 31
0.0
  0
LINE
  5
8D
330
1F
100
AcDbEntity
  8
0
  6
Continuous
 62
     7
100
AcDbLine
 10
198.1543059108607
 20
84.16792994915505
 30
0.0
 11
197.1542678324751
 21
84.16792994915505
 31
0.0
  0
LINE
  5
8E
330
1F
100
AcDbEntity
  8
0
  6
Continuous
 62
     7
100
AcDbLine
 10
197.1804484358474
 20
87.16792994915505
 30
0.0
 11
197.1542678324751
 21
84.16792994915505
 31
0.0
  0
LINE
  5
8F
330
1F
100
AcDbEntity
  8
0
  6
Continuous
 62
     7
100
AcDbLine
 10
191.4482611510227
 20
87.16792994915505
 30
0.0
 11
197.1804484358474
 21
87.16792994915505
 31
0.0
  0
LINE
  5
90
330
1F
100
AcDbEntity
  8
0
  6
Continuous
 62
     7
100
AcDbLine
 10
191.4482611510227
 20
83.16792994915505
 30
0.0
 11
200.8482611510227
 21
83.16792994915505
 31
0.0
  0
LINE
  5
91
330
1F
100
AcDbEntity
  8
0
  6
Continuous
 62
     7
100
AcDbLine
 10
208.4482611510227
 20
108.8630504485742
 30
0.0
 11
208.4482611510227
 21
92.47280944973596
 31
0.0
  0
LINE
  5
92
330
1F
100
AcDbEntity
  8
0
  6
Continuous
 62
     7
100
AcDbLine
 10
191.4482611510227
 20
83.16792994915505
 30
0.0
 11
188.4482611510227
 21
83.16792994915505
 31
0.0
  0
LINE
  5
93
330
1F
100
AcDbEntity
  8
0
  6
Continuous
 62
     7
100
AcDbLine
 10
188.4482611510227
 20
83.16792994915505
 30
0.0
 11
188.4482611510227
 21
86.16792994915505
 31
0.0
  0
LINE
  5
94
330
1F
100
AcDbEntity
  8
0
  6
Continuous
 62
     7
100
AcDbLine
 10
191.4482611510227
 20
87.16792994915505
 30
0.0
 11
189.4482611510227
 21
87.16792994915505
 31
0.0
  0
LINE
  5
95
330
1F
100
AcDbEntity
  8
0
  6
Continuous
 62
     7
100
AcDbLine
 10
197.2982611510226
 20
100.667929949155
 30
0.0
 11
197.1804484358474
 21
87.16792994915505
 31
0.0
  0
LINE
  5
96
330
1F
100
AcDbEntity
  8
0
  6
Continuous
 62
     7
100
AcDbLine
 10
200.8482611510227
 20
84.16792994915505
 30
0.0
 11
226.0482611510226
 21
84.16792994915505
 31
0.0
  0
LINE
  5
97
330
1F
100
AcDbEntity
  8
0
  6
Continuous
 62
     7
100
AcDbLine
 10
238.4482611510227
 20
83.16792994915505
 30
0.0
 11
238.4482611510227
 21
86.16792994915505
 31
0.0
  0
LINE
  5
98
330
1F
100
AcDbEntity
  8
0
  6
Continuous
 62
     7
100
AcDbLine
 10
237.4482611510227
 20
87.16792994915505
 30
0.0
 11
235.4482611510227
 21
87.16792994915505
 31
0.0
  0
LINE
  5
99
330
1F
100
AcDbEntity
  8
0
  6
Continuous
 62
     7
100
AcDbLine
 10
238.4482611510227
 20
83.16792994915505
 30
0.0
 11
235.4482611510227
 21
83.16792994915505
 31
0.0
  0
LINE
  5
9A
330
1F
100
AcDbEntity
  8
0
  6
Continuous
 62
     7
100
AcDbLine
 10
229.7160738661978
 20
87.16792994915505
 30
0.0
 11
235.4482611510227
 21
87.16792994915505
 31
0.0
  0
LINE
  5
9B
330
1F
100
AcDbEntity
  8
0
  6
Continuous
 62
     7
100
AcDbLine
 10
226.0482611510226
 20
84.16792994915505
 30
0.0
 11
228.7422163911841
 21
84.16792994915505
 31
0.0
  0
LINE
  5
9C
330
1F
100
AcDbEntity
  8
0
  6
Continuous
 62
     7
100
AcDbLine
 10
228.7422163911841
 20
84.16792994915505
 30
0.0
 11
229.74225446957
 21
84.16792994915505
 31
0.0
  0
LINE
  5
9D
330
1F
100
AcDbEntity
  8
0
  6
Continuous
 62
     7
100
AcDbLine
 10
226.0482611510226
 20
83.16792994915505
 30
0.0
 11
235.4482611510227
 21
83.16792994915505
 31
0.0
  0
LINE
  5
9E
330
1F
100
AcDbEntity
  8
0
  6
Continuous
 62
     7
100
AcDbLine
 10
218.6482611510227
 20
108.7376263498879
 30
0.0
 11
218.6482611510227
 21
92.59823354842226
 31
0.0
  0
LINE
  5
9F
330
1F
100
AcDbEntity
  8
0
  6
Continuous
 62
     7
100
AcDbLine
 10
229.74225446957
 20
84.16792994915505
 30
0.0
 11
229.7160738661978
 21
87.16792994915505
 31
0.0
  0
LINE
  5
A0
330
1F
100
AcDbEntity
  8
0
  6
Continuous
 62
     7
100
AcDbLine
 10
229.5982611510225
 20
100.667929949155
 30
0.0
 11
229.7160738661978
 21
87.16792994915505
 31
0.0
  0
LINE
  5
A1
330
1F
100
AcDbEntity
  8
1
  6
DOT_CENTER
 62
     7
100
AcDbLine
 10
228.382868579496
 20
100.667929949155
 30
0.0
 11
198.5136537225491
 21
100.667929949155
 31
0.0
  0
LINE
  5
A2
330
1F
100
AcDbEntity
  8
1
  6
DOT_CENTER
 62
     7
100
AcDbLine
 10
213.4482611510227
 20
115.6025373776286
 30
0.0
 11
213.4482611510227
 21
85.73332252068153
 31
0.0
  0
LINE
  5
A3
330
1F
100
AcDbEntity
  8
1
  6
DOT_CENTER
 62
     7
100
AcDbLine
 10
193.4482611510227
 20
81.14076185028006
 30
0.0
 11
193.4482611510227
 21
89.14076185028006
 31
0.0
  0
LINE
  5
A4
330
1F
100
AcDbEntity
  8
1
  6
DOT_CENTER
 62
     7
100
AcDbLine
 10
233.4482611510227
 20
81.43304114824656
 30
0.0
 11
233.4482611510227
 21
89.03304114824655
 31
0.0
  0
LINE
  5
A5
330
1F
100
AcDbEntity
  8
0
  6
Continuous
 62
     7
100
AcDbLine
 10
76.22321399459526
 20
149.1679299491521
 30
0.0
 11
77.47321399459526
 21
149.1679299491521
 31
0.0
  0
LINE
  5
A6
330
1F
100
AcDbEntity
  8
0
  6
Continuous
 62
     7
100
AcDbLine
 10
111.8843544616804
 20
139.2044853268156
 30
0.0
 11
59.71212820030047
 21
139.2044853268156
 31
0.0
  0
LINE
  5
A7
330
1F
100
AcDbEntity
  8
0
  6
Continuous
 62
     7
100
AcDbLine
 10
111.7640361025298
 20
139.1325513467799
 30
0.0
 11
59.83244655945424
 21
139.1325513467818
 31
0.0
  0
LINE
  5
A8
330
1F
100
AcDbEntity
  8
0
  6
Continuous
 62
     7
100
AcDbLine
 10
114.5755959070604
 20
138.0755915584259
 30
0.0
 11
114.494281047115
 21
137.98729679914
 31
0.0
  0
LINE
  5
A9
330
1F
100
AcDbEntity
  8
0
  6
Continuous
 62
     7
100
AcDbLine
 10
114.5755959070604
 20
138.0755915584259
 30
0.0
 11
57.02088675492047
 21
138.0755915584258
 31
0.0
  0
LINE
  5
AA
330
1F
100
AcDbEntity
  8
0
  6
Continuous
 62
     7
100
AcDbLine
 10
114.494281047115
 20
137.98729679914
 30
0.0
 11
57.10220161486586
 21
137.98729679914
 31
0.0
  0
LINE
  5
AB
330
1F
100
AcDbEntity
  8
0
  6
Continuous
 62
     7
100
AcDbLine
 10
120.0971542583476
 20
137.1292389691901
 30
0.0
 11
120.0971542460102
 21
137.2679299491529
 31
0.0
  0
LINE
  5
AC
330
1F
100
AcDbEntity
  8
0
  6
Continuous
 62
     7
100
AcDbLine
 10
52.25591371545994
 20
137.184981597334
 30
0.0
 11
119.3405689465209
 21
137.184981597334
 31
0.0
  0
LINE
  5
AD
330
1F
100
AcDbEntity
  8
0
  6
Continuous
 62
     7
100
AcDbLine
 10
119.35061538472
 20
137.2679299491529
 30
0.0
 11
120.0971542460102
 21
137.2679299491529
 31
0.0
  0
LINE
  5
AE
330
1F
100
AcDbEntity
  8
0
  6
Continuous
 62
     7
100
AcDbLine
 10
55.55693527685276
 20
137.590081603651
 30
0.0
 11
116.0395473851281
 21
137.5900816036509
 31
0.0
  0
LINE
  5
AF
330
1F
100
AcDbEntity
  8
0
  6
Continuous
 62
     7
100
AcDbLine
 10
117.7015373206036
 20
137.4187115040894
 30
0.0
 11
117.6655259594052
 21
137.320896744016
 31
0.0
  0
LINE
  5
B0
330
1F
100
AcDbEntity
  8
0
  6
Continuous
 62
     7
100
AcDbLine
 10
53.93095670257566
 20
137.320896744016
 30
0.0
 11
117.6655259594052
 21
137.320896744016
 31
0.0
  0
LINE
  5
B1
330
1F
100
AcDbEntity
  8
0
  6
Continuous
 62
     7
100
AcDbLine
 10
117.7015373206036
 20
137.4187115040894
 30
0.0
 11
53.89494534137725
 21
137.4187115040894
 31
0.0
  0
LINE
  5
B2
330
1F
100
AcDbEntity
  8
0
  6
Continuous
 62
     7
100
AcDbLine
 10
53.93095670257566
 20
137.320896744016
 30
0.0
 11
53.89494534137725
 21
137.4187115040894
 31
0.0
  0
LINE
  5
B3
330
1F
100
AcDbEntity
  8
0
  6
Continuous
 62
     7
100
AcDbLine
 10
119.7149117032745
 20
136.8221678548246
 30
0.0
 11
51.88157095870594
 21
136.8221678548246
 31
0.0
  0
LINE
  5
B4
330
1F
100
AcDbEntity
  8
0
  6
Continuous
 62
     7
100
AcDbLine
 10
57.10220161486586
 20
137.98729679914
 30
0.0
 11
57.02088675492047
 21
138.0755915584258
 31
0.0
  0
LINE
  5
B5
330
1F
100
AcDbEntity
  8
0
  6
Continuous
 62
     7
100
AcDbLine
 10
58.53667886506008
 20
138.5048109885277
 30
0.0
 11
113.0598037969208
 21
138.5048109885277
 31
0.0
  0
LINE
  5
B6
330
1F
100
AcDbEntity
  8
0
  6
Continuous
 62
     7
100
AcDbLine
 10
55.49769565030744
 20
137.6840508657297
 30
0.0
 11
55.55693527685276
 21
137.590081603651
 31
0.0
  0
LINE
  5
B7
330
1F
100
AcDbEntity
  8
0
  6
Continuous
 62
     7
100
AcDbLine
 10
58.43487147296906
 20
138.5857126879651
 30
0.0
 11
58.53667886506008
 21
138.5048109885277
 31
0.0
  0
LINE
  5
B8
330
1F
100
AcDbEntity
  8
0
  6
Continuous
 62
     7
100
AcDbLine
 10
59.83244655945424
 20
139.1325513467818
 30
0.0
 11
59.71212820030047
 21
139.2044853268156
 31
0.0
  0
LINE
  5
B9
330
1F
100
AcDbEntity
  8
0
  6
Continuous
 62
     7
100
AcDbLine
 10
66.49045432174256
 20
151.0998064303438
 30
0.0
 11
53.09754559205646
 21
151.0998064303438
 31
0.0
  0
LINE
  5
BA
330
1F
100
AcDbEntity
  8
0
  6
Continuous
 62
     7
100
AcDbLine
 10
66.49045432174256
 20
151.0998064303438
 30
0.0
 11
67.04831480182304
 21
150.896761820721
 31
0.0
  0
LINE
  5
BB
330
1F
100
AcDbEntity
  8
0
  6
Continuous
 62
     7
100
AcDbLine
 10
66.30328649208093
 20
151.167929949153
 30
0.0
 11
53.07344010386555
 21
151.167929949153
 31
0.0
  0
LINE
  5
BC
330
1F
100
AcDbEntity
  8
0
  6
Continuous
 62
     7
100
AcDbLine
 10
66.30328649208093
 20
151.167929949153
 30
0.0
 11
66.49045432174256
 21
151.0998064303438
 31
0.0
  0
LINE
  5
BD
330
1F
100
AcDbEntity
  8
0
  6
Continuous
 62
     7
100
AcDbLine
 10
54.70434496138734
 20
150.8006356511269
 30
0.0
 11
67.31241928220078
 21
150.8006356511269
 31
0.0
  0
LINE
  5
BE
330
1F
100
AcDbEntity
  8
0
  6
Continuous
 62
     7
100
AcDbLine
 10
54.70434496138734
 20
150.8006356511269
 30
0.0
 11
54.75208675186127
 21
150.896761820721
 31
0.0
  0
LINE
  5
BF
330
1F
100
AcDbEntity
  8
0
  6
Continuous
 62
     7
100
AcDbLine
 10
59.20354700785828
 20
149.5302410509851
 30
0.0
 11
59.09221292801306
 21
149.4536366066733
 31
0.0
  0
LINE
  5
C0
330
1F
100
AcDbEntity
  8
0
  6
Continuous
 62
     7
100
AcDbLine
 10
59.20354700785828
 20
149.5302410509851
 30
0.0
 11
70.80279975988674
 21
149.5302410509851
 31
0.0
  0
LINE
  5
C1
330
1F
100
AcDbEntity
  8
0
  6
Continuous
 62
     7
100
AcDbLine
 10
60.29159712493976
 20
148.7849311330276
 30
0.0
 11
71.72215963614553
 21
148.7849311330147
 31
0.0
  0
LINE
  5
C2
330
1F
100
AcDbEntity
  8
0
  6
Continuous
 62
     7
100
AcDbLine
 10
72.86450633609394
 20
148.0822802734475
 30
0.0
 11
61.46170779803077
 21
148.0822802734475
 31
0.0
  0
LINE
  5
C3
330
1F
100
AcDbEntity
  8
0
  6
Continuous
 62
     7
100
AcDbLine
 10
57.83509104561836
 20
150.1042666222475
 30
0.0
 11
69.22567746465455
 21
150.1042666222475
 31
0.0
  0
LINE
  5
C4
330
1F
100
AcDbEntity
  8
0
  6
Continuous
 62
     7
100
AcDbLine
 10
69.45867676413468
 20
150.0194618126319
 30
0.0
 11
57.74330633666227
 21
150.0194618126319
 31
0.0
  0
LINE
  5
C5
330
1F
100
AcDbEntity
  8
0
  6
Continuous
 62
     7
100
AcDbLine
 10
60.29159712493976
 20
148.7849311330276
 30
0.0
 11
60.42031358444984
 21
148.8518441936643
 31
0.0
  0
LINE
  5
C6
330
1F
100
AcDbEntity
  8
0
  6
Continuous
 62
     7
100
AcDbLine
 10
61.46170779803077
 20
148.0822802734475
 30
0.0
 11
61.31811427832594
 21
148.0263609831003
 31
0.0
  0
LINE
  5
C7
330
1F
100
AcDbEntity
  8
0
  6
Continuous
 62
     7
100
AcDbLine
 10
60.42031358444984
 20
148.8518441936643
 30
0.0
 11
71.89321847117327
 21
148.851844193762
 31
0.0
  0
LINE
  5
C8
330
1F
100
AcDbEntity
  8
0
  6
Continuous
 62
     7
100
AcDbLine
 10
57.74330633666227
 20
150.0194618126319
 30
0.0
 11
57.83509104561836
 21
150.1042666222475
 31
0.0
  0
LINE
  5
C9
330
1F
100
AcDbEntity
  8
0
  6
Continuous
 62
     7
100
AcDbLine
 10
56.34158113643935
 20
150.5627481526509
 30
0.0
 11
56.27113228332865
 21
150.4713936068866
 31
0.0
  0
LINE
  5
CA
330
1F
100
AcDbEntity
  8
0
  6
Continuous
 62
     7
100
AcDbLine
 10
67.04831480182304
 20
150.896761820721
 30
0.0
 11
54.75208675186127
 21
150.896761820721
 31
0.0
  0
LINE
  5
CB
330
1F
100
AcDbEntity
  8
0
  6
Continuous
 62
     7
100
AcDbLine
 10
56.34158113643935
 20
150.5627481526509
 30
0.0
 11
67.96600981263464
 21
150.5627481526509
 31
0.0
  0
LINE
  5
CC
330
1F
100
AcDbEntity
  8
0
  6
Continuous
 62
     7
100
AcDbLine
 10
76.22321399459526
 20
149.1679299491521
 30
0.0
 11
71.79824133099027
 21
149.167929949152
 31
0.0
  0
LINE
  5
CD
330
1F
100
AcDbEntity
  8
0
  6
Continuous
 62
     7
100
AcDbLine
 10
67.31241928220078
 20
150.8006356511269
 30
0.0
 11
67.04831480182304
 21
150.896761820721
 31
0.0
  0
LINE
  5
CE
330
1F
100
AcDbEntity
  8
0
  6
Continuous
 62
     7
100
AcDbLine
 10
67.31241928220078
 20
150.8006356511269
 30
0.0
 11
67.96600981263464
 21
150.5627481526509
 31
0.0
  0
LINE
  5
CF
330
1F
100
AcDbEntity
  8
0
  6
Continuous
 62
     7
100
AcDbLine
 10
69.45867676413468
 20
150.0194618126319
 30
0.0
 11
69.22567746465455
 21
150.1042666222475
 31
0.0
  0
LINE
  5
D0
330
1F
100
AcDbEntity
  8
0
  6
Continuous
 62
     7
100
AcDbLine
 10
67.96600981263464
 20
150.5627481526509
 30
0.0
 11
69.22567746465455
 21
150.1042666222475
 31
0.0
  0
LINE
  5
D1
330
1F
100
AcDbEntity
  8
0
  6
Continuous
 62
     7
100
AcDbLine
 10
70.80279975988674
 20
149.5302410509851
 30
0.0
 11
71.79824133099027
 21
149.167929949152
 31
0.0
  0
LINE
  5
D2
330
1F
100
AcDbEntity
  8
0
  6
Continuous
 62
     7
100
AcDbLine
 10
71.79824133099027
 20
149.167929949152
 30
0.0
 11
71.94331253070504
 21
149.115128350607
 31
0.0
  0
LINE
  5
D3
330
1F
100
AcDbEntity
  8
0
  6
Continuous
 62
     7
100
AcDbLine
 10
69.45867676413468
 20
150.0194618126319
 30
0.0
 11
70.80279975988674
 21
149.5302410509851
 31
0.0
  0
LINE
  5
D4
330
1F
100
AcDbEntity
  8
0
  6
Continuous
 62
     7
100
AcDbLine
 10
119.3405689465209
 20
137.184981597334
 30
0.0
 11
119.352651122189
 21
137.2847380023601
 31
0.0
  0
LINE
  5
D5
330
1F
100
AcDbEntity
  8
0
  6
Continuous
 62
     7
100
AcDbLine
 10
110.1347748639503
 20
148.0822802734475
 30
0.0
 11
98.73197632588625
 21
148.0822802734474
 31
0.0
  0
LINE
  5
D6
330
1F
100
AcDbEntity
  8
0
  6
Continuous
 62
     7
100
AcDbLine
 10
98.04189972448768
 20
147.192690861997
 30
0.0
 11
109.4446982625516
 21
147.192690861997
 31
0.0
  0
LINE
  5
D7
330
1F
100
AcDbEntity
  8
0
  6
Continuous
 62
     7
100
AcDbLine
 10
97.88622402911454
 20
147.2365279766758
 30
0.0
 11
109.2890225671785
 21
147.2365279766758
 31
0.0
  0
LINE
  5
D8
330
1F
100
AcDbEntity
  8
0
  6
Continuous
 62
     7
100
AcDbLine
 10
95.3732686673847
 20
146.6679299491521
 30
0.0
 11
96.64440245271305
 21
146.6679299491521
 31
0.0
  0
LINE
  5
D9
330
1F
100
AcDbEntity
  8
0
  6
Continuous
 62
     7
100
AcDbLine
 10
111.8843544616804
 20
139.2044853268156
 30
0.0
 11
111.7640361025298
 21
139.1325513467799
 31
0.0
  0
LINE
  5
DA
330
1F
100
AcDbEntity
  8
0
  6
Continuous
 62
     7
100
AcDbLine
 10
95.3732686673847
 20
146.6679299491521
 30
0.0
 11
94.12326866738476
 21
146.6679299491523
 31
0.0
  0
LINE
  5
DB
330
1F
100
AcDbEntity
  8
0
  6
Continuous
 62
     7
100
AcDbLine
 10
109.2890225671785
 20
147.2365279766758
 30
0.0
 11
109.4446982625516
 21
147.192690861997
 31
0.0
  0
LINE
  5
DC
330
1F
100
AcDbEntity
  8
0
  6
Continuous
 62
     7
100
AcDbLine
 10
93.29824133099004
 20
146.331048909777
 30
0.0
 11
108.6553737936439
 21
146.3310489097767
 31
0.0
  0
LINE
  5
DD
330
1F
100
AcDbEntity
  8
0
  6
Continuous
 62
     7
100
AcDbLine
 10
93.29824133099027
 20
146.6679299491521
 30
0.0
 11
93.29824133099004
 21
146.331048909777
 31
0.0
  0
LINE
  5
DE
330
1F
100
AcDbEntity
  8
0
  6
Continuous
 62
     7
100
AcDbLine
 10
94.12326866738476
 20
146.6679299491523
 30
0.0
 11
93.29824133099027
 21
146.6679299491521
 31
0.0
  0
LINE
  5
DF
330
1F
100
AcDbEntity
  8
0
  6
Continuous
 62
     7
100
AcDbLine
 10
78.29824133099027
 20
146.6679299491521
 30
0.0
 11
77.47321399459554
 21
146.6679299491523
 31
0.0
  0
LINE
  5
E0
330
1F
100
AcDbEntity
  8
0
  6
Continuous
 62
     7
100
AcDbLine
 10
93.29824133099027
 20
146.6679299491521
 30
0.0
 11
78.29824133099027
 21
146.6679299491521
 31
0.0
  0
LINE
  5
E1
330
1F
100
AcDbEntity
  8
0
  6
Continuous
 62
     7
100
AcDbLine
 10
76.22321399459554
 20
146.6679299491521
 30
0.0
 11
77.47321399459554
 21
146.6679299491523
 31
0.0
  0
LINE
  5
E2
330
1F
100
AcDbEntity
  8
0
  6
Continuous
 62
     7
100
AcDbLine
 10
78.29824133099027
 20
146.6679299491521
 30
0.0
 11
78.29824133099004
 21
146.331048909777
 31
0.0
  0
LINE
  5
E3
330
1F
100
AcDbEntity
  8
0
  6
Continuous
 62
     7
100
AcDbLine
 10
76.22321399459554
 20
146.6679299491521
 30
0.0
 11
74.95208020926708
 21
146.6679299491521
 31
0.0
  0
LINE
  5
E4
330
1F
100
AcDbEntity
  8
0
  6
Continuous
 62
     7
100
AcDbLine
 10
62.15178439942935
 20
147.192690861997
 30
0.0
 11
73.55458293749268
 21
147.192690861997
 31
0.0
  0
LINE
  5
E5
330
1F
100
AcDbEntity
  8
0
  6
Continuous
 62
     7
100
AcDbLine
 10
62.30746009480254
 20
147.2365279766758
 30
0.0
 11
73.71025863286587
 21
147.2365279766758
 31
0.0
  0
LINE
  5
E6
330
1F
100
AcDbEntity
  8
0
  6
Continuous
 62
     7
100
AcDbLine
 10
73.71025863286587
 20
147.2365279766758
 30
0.0
 11
73.55458293749268
 21
147.192690861997
 31
0.0
  0
LINE
  5
E7
330
1F
100
AcDbEntity
  8
0
  6
Continuous
 62
     7
100
AcDbLine
 10
62.15178439942935
 20
147.192690861997
 30
0.0
 11
62.30746009480254
 21
147.2365279766758
 31
0.0
  0
LINE
  5
E8
330
1F
100
AcDbEntity
  8
0
  6
Continuous
 62
     7
100
AcDbLine
 10
97.88622402911454
 20
147.2365279766758
 30
0.0
 11
98.04189972448768
 21
147.192690861997
 31
0.0
  0
LINE
  5
E9
330
1F
100
AcDbEntity
  8
0
  6
Continuous
 62
     7
100
AcDbLine
 10
53.08978609576286
 20
151.067929949153
 30
0.0
 11
53.07344010386555
 21
151.067929949153
 31
0.0
  0
LINE
  5
EA
330
1F
100
AcDbEntity
  8
0
  6
Continuous
 62
     7
100
AcDbLine
 10
53.07344010386555
 20
151.067929949153
 30
0.0
 11
53.07344010386555
 21
151.167929949153
 31
0.0
  0
LINE
  5
EB
330
1F
100
AcDbEntity
  8
0
  6
Continuous
 62
     7
100
AcDbLine
 10
51.49932841597274
 20
137.2679299491529
 30
0.0
 11
51.49932840363636
 21
137.1292389691924
 31
0.0
  0
LINE
  5
EC
330
1F
100
AcDbEntity
  8
0
  6
Continuous
 62
     7
100
AcDbLine
 10
53.07344010386555
 20
151.167929949153
 30
0.0
 11
52.44824133099002
 21
151.167929949153
 31
0.0
  0
LINE
  5
ED
330
1F
100
AcDbEntity
  8
0
  6
Continuous
 62
     7
100
AcDbLine
 10
53.07344010386555
 20
151.0225627902376
 30
0.0
 11
53.07344010386555
 21
151.067929949153
 31
0.0
  0
LINE
  5
EE
330
1F
100
AcDbEntity
  8
0
  6
Continuous
 62
     7
100
AcDbLine
 10
52.24383153979176
 20
137.2847380023601
 30
0.0
 11
52.25591371545994
 21
137.184981597334
 31
0.0
  0
LINE
  5
EF
330
1F
100
AcDbEntity
  8
0
  6
Continuous
 62
     7
100
AcDbLine
 10
51.49932841597274
 20
137.2679299491529
 30
0.0
 11
52.24586727726086
 21
137.2679299491529
 31
0.0
  0
LINE
  5
F0
330
1F
100
AcDbEntity
  8
0
  6
Continuous
 62
     7
100
AcDbLine
 10
116.0395473851281
 20
137.5900816036509
 30
0.0
 11
116.0987870116734
 21
137.6840508657297
 31
0.0
  0
LINE
  5
F1
330
1F
100
AcDbEntity
  8
0
  6
Continuous
 62
     7
100
AcDbLine
 10
110.2783683836551
 20
148.0263609831004
 30
0.0
 11
110.1347748639503
 21
148.0822802734475
 31
0.0
  0
LINE
  5
F2
330
1F
100
AcDbEntity
  8
0
  6
Continuous
 62
     7
100
AcDbLine
 10
119.1482413309901
 20
151.1679299491536
 30
0.0
 11
118.5230425581153
 21
151.167929949153
 31
0.0
  0
LINE
  5
F3
330
1F
100
AcDbEntity
  8
0
  6
Continuous
 62
     7
100
AcDbLine
 10
116.8443959101199
 20
150.896761820721
 30
0.0
 11
116.8921377005935
 21
150.8006356511271
 31
0.0
  0
LINE
  5
F4
330
1F
100
AcDbEntity
  8
0
  6
Continuous
 62
     7
100
AcDbLine
 10
118.5230425581153
 20
151.067929949153
 30
0.0
 11
118.5230425581153
 21
151.0225627902376
 31
0.0
  0
LINE
  5
F5
330
1F
100
AcDbEntity
  8
0
  6
Continuous
 62
     7
100
AcDbLine
 10
115.3253503786522
 20
150.4713936068866
 30
0.0
 11
115.2549015255415
 21
150.5627481526509
 31
0.0
  0
LINE
  5
F6
330
1F
100
AcDbEntity
  8
0
  6
Continuous
 62
     7
100
AcDbLine
 10
105.106028340238
 20
151.0998064303438
 30
0.0
 11
118.4989370699245
 21
151.0998064303438
 31
0.0
  0
LINE
  5
F7
330
1F
100
AcDbEntity
  8
0
  6
Continuous
 62
     7
100
AcDbLine
 10
118.5230425581153
 20
151.167929949153
 30
0.0
 11
118.5230425581153
 21
151.067929949153
 31
0.0
  0
LINE
  5
F8
330
1F
100
AcDbEntity
  8
0
  6
Continuous
 62
     7
100
AcDbLine
 10
104.5481678601574
 20
150.896761820721
 30
0.0
 11
116.8443959101199
 21
150.896761820721
 31
0.0
  0
LINE
  5
F9
330
1F
100
AcDbEntity
  8
0
  6
Continuous
 62
     7
100
AcDbLine
 10
104.2840633797796
 20
150.8006356511271
 30
0.0
 11
116.8921377005935
 21
150.8006356511271
 31
0.0
  0
LINE
  5
FA
330
1F
100
AcDbEntity
  8
0
  6
Continuous
 62
     7
100
AcDbLine
 10
103.6304728493457
 20
150.5627481526509
 30
0.0
 11
115.2549015255415
 21
150.5627481526509
 31
0.0
  0
LINE
  5
FB
330
1F
100
AcDbEntity
  8
0
  6
Continuous
 62
     7
100
AcDbLine
 10
111.1761690775311
 20
148.8518441936643
 30
0.0
 11
99.7032641907328
 21
148.851844193664
 31
0.0
  0
LINE
  5
FC
330
1F
100
AcDbEntity
  8
0
  6
Continuous
 62
     7
100
AcDbLine
 10
102.1378058978458
 20
150.0194618126319
 30
0.0
 11
113.8531763253187
 21
150.0194618126319
 31
0.0
  0
LINE
  5
FD
330
1F
100
AcDbEntity
  8
0
  6
Continuous
 62
     7
100
AcDbLine
 10
100.7936829020936
 20
149.5302410509851
 30
0.0
 11
112.3929356541227
 21
149.5302410509853
 31
0.0
  0
LINE
  5
FE
330
1F
100
AcDbEntity
  8
0
  6
Continuous
 62
     7
100
AcDbLine
 10
111.3048855370421
 20
148.7849311330286
 30
0.0
 11
99.87432302581857
 21
148.7849311330284
 31
0.0
  0
LINE
  5
FF
330
1F
100
AcDbEntity
  8
0
  6
Continuous
 62
     7
100
AcDbLine
 10
112.5042697339679
 20
149.4536366066733
 30
0.0
 11
112.3929356541227
 21
149.5302410509853
 31
0.0
  0
LINE
  5
100
330
1F
100
AcDbEntity
  8
0
  6
Continuous
 62
     7
100
AcDbLine
 10
113.7613916163625
 20
150.1042666222475
 30
0.0
 11
113.8531763253187
 21
150.0194618126319
 31
0.0
  0
LINE
  5
101
330
1F
100
AcDbEntity
  8
0
  6
Continuous
 62
     7
100
AcDbLine
 10
111.1761690775311
 20
148.8518441936643
 30
0.0
 11
111.3048855370421
 21
148.7849311330286
 31
0.0
  0
LINE
  5
102
330
1F
100
AcDbEntity
  8
0
  6
Continuous
 62
     7
100
AcDbLine
 10
118.5230425581153
 20
151.067929949153
 30
0.0
 11
118.5066965662182
 21
151.067929949153
 31
0.0
  0
LINE
  5
103
330
1F
100
AcDbEntity
  8
0
  6
Continuous
 62
     7
100
AcDbLine
 10
102.3708051973259
 20
150.1042666222475
 30
0.0
 11
113.7613916163625
 21
150.1042666222475
 31
0.0
  0
LINE
  5
104
330
1F
100
AcDbEntity
  8
0
  6
Continuous
 62
     7
100
AcDbLine
 10
118.5230425581153
 20
151.167929949153
 30
0.0
 11
105.2931961698995
 21
151.167929949153
 31
0.0
  0
LINE
  5
105
330
1F
100
AcDbEntity
  8
0
  6
Continuous
 62
     7
100
AcDbLine
 10
99.79824133099004
 20
149.167929949152
 30
0.0
 11
100.7936829020936
 21
149.5302410509851
 31
0.0
  0
LINE
  5
106
330
1F
100
AcDbEntity
  8
0
  6
Continuous
 62
     7
100
AcDbLine
 10
99.65317013127537
 20
149.1151283506069
 30
0.0
 11
99.79824133099004
 21
149.167929949152
 31
0.0
  0
LINE
  5
107
330
1F
100
AcDbEntity
  8
0
  6
Continuous
 62
     7
100
AcDbLine
 10
104.5481678601574
 20
150.896761820721
 30
0.0
 11
105.106028340238
 21
151.0998064303438
 31
0.0
  0
LINE
  5
108
330
1F
100
AcDbEntity
  8
0
  6
Continuous
 62
     7
100
AcDbLine
 10
104.5481678601574
 20
150.896761820721
 30
0.0
 11
104.2840633797796
 21
150.8006356511271
 31
0.0
  0
LINE
  5
109
330
1F
100
AcDbEntity
  8
0
  6
Continuous
 62
     7
100
AcDbLine
 10
95.37326866738505
 20
149.1679299491521
 30
0.0
 11
94.12326866738499
 21
149.1679299491521
 31
0.0
  0
LINE
  5
10A
330
1F
100
AcDbEntity
  8
0
  6
Continuous
 62
     7
100
AcDbLine
 10
102.3708051973259
 20
150.1042666222475
 30
0.0
 11
103.6304728493457
 21
150.5627481526509
 31
0.0
  0
LINE
  5
10B
330
1F
100
AcDbEntity
  8
0
  6
Continuous
 62
     7
100
AcDbLine
 10
103.6304728493457
 20
150.5627481526509
 30
0.0
 11
104.2840633797796
 21
150.8006356511271
 31
0.0
  0
LINE
  5
10C
330
1F
100
AcDbEntity
  8
0
  6
Continuous
 62
     7
100
AcDbLine
 10
105.106028340238
 20
151.0998064303438
 30
0.0
 11
105.2931961698995
 21
151.167929949153
 31
0.0
  0
LINE
  5
10D
330
1F
100
AcDbEntity
  8
0
  6
Continuous
 62
     7
100
AcDbLine
 10
95.37326866738505
 20
149.1679299491521
 30
0.0
 11
99.79824133099004
 21
149.167929949152
 31
0.0
  0
LINE
  5
10E
330
1F
100
AcDbEntity
  8
0
  6
Continuous
 62
     7
100
AcDbLine
 10
102.3708051973259
 20
150.1042666222475
 30
0.0
 11
102.1378058978458
 21
150.0194618126319
 31
0.0
  0
LINE
  5
10F
330
1F
100
AcDbEntity
  8
0
  6
Continuous
 62
     7
100
AcDbLine
 10
94.12326866738499
 20
149.1679299491521
 30
0.0
 11
77.47321399459526
 21
149.1679299491521
 31
0.0
  0
LINE
  5
110
330
1F
100
AcDbEntity
  8
0
  6
Continuous
 62
     7
100
AcDbLine
 10
100.7936829020936
 20
149.5302410509851
 30
0.0
 11
102.1378058978458
 21
150.0194618126319
 31
0.0
  0
LINE
  5
111
330
1F
100
AcDbEntity
  8
0
  6
Continuous
 62
     7
100
AcDbLine
 10
63.29584233760954
 20
143.4466835526053
 30
0.0
 11
63.46809858281137
 21
143.4362307062784
 31
0.0
  0
LINE
  5
112
330
1F
100
AcDbEntity
  8
0
  6
Continuous
 62
     7
100
AcDbLine
 10
63.46809858281137
 20
143.4362307062784
 30
0.0
 11
78.29824133099004
 21
143.4362307062784
 31
0.0
  0
LINE
  5
113
330
1F
100
AcDbEntity
  8
0
  6
Continuous
 62
     7
100
AcDbLine
 10
78.29824133099004
 20
145.3661023750538
 30
0.0
 11
78.29824133099004
 21
144.4122264260696
 31
0.0
  0
LINE
  5
114
330
1F
100
AcDbEntity
  8
0
  6
Continuous
 62
     7
100
AcDbLine
 10
63.52713124179599
 20
144.4122264260696
 30
0.0
 11
78.29824133099004
 21
144.4122264260696
 31
0.0
  0
LINE
  5
115
330
1F
100
AcDbEntity
  8
0
  6
Continuous
 62
     7
100
AcDbLine
 10
63.35032086602286
 20
145.3834671928206
 30
0.0
 11
78.29824133099004
 21
145.3834671928206
 31
0.0
  0
LINE
  5
116
330
1F
100
AcDbEntity
  8
0
  6
Continuous
 62
     7
100
AcDbLine
 10
63.17974715963214
 20
145.3661023750538
 30
0.0
 11
78.29824133099004
 21
145.3661023750538
 31
0.0
  0
LINE
  5
117
330
1F
100
AcDbEntity
  8
0
  6
Continuous
 62
     7
100
AcDbLine
 10
63.52713124179599
 20
144.4122264260696
 30
0.0
 11
63.35403167289445
 21
144.4087364763994
 31
0.0
  0
LINE
  5
118
330
1F
100
AcDbEntity
  8
0
  6
Continuous
 62
     7
100
AcDbLine
 10
62.94110886833715
 20
146.3310489097767
 30
0.0
 11
78.29824133099004
 21
146.331048909777
 31
0.0
  0
LINE
  5
119
330
1F
100
AcDbEntity
  8
0
  6
Continuous
 62
     7
100
AcDbLine
 10
62.94110886833715
 20
146.3310489097767
 30
0.0
 11
62.77638104762775
 21
146.3001472103392
 31
0.0
  0
LINE
  5
11A
330
1F
100
AcDbEntity
  8
0
  6
Continuous
 62
     7
100
AcDbLine
 10
93.29824133099004
 20
146.331048909777
 30
0.0
 11
93.29824133099004
 21
145.3834671928206
 31
0.0
  0
LINE
  5
11B
330
1F
100
AcDbEntity
  8
0
  6
Continuous
 62
     7
100
AcDbLine
 10
113.0598037969208
 20
138.5048109885277
 30
0.0
 11
113.1616111890118
 21
138.5857126879651
 31
0.0
  0
LINE
  5
11C
330
1F
100
AcDbEntity
  8
0
  6
Continuous
 62
     7
100
AcDbLine
 10
108.8201016143531
 20
146.3001472103392
 30
0.0
 11
108.6553737936439
 21
146.3310489097767
 31
0.0
  0
LINE
  5
11D
330
1F
100
AcDbEntity
  8
0
  6
Continuous
 62
     7
100
AcDbLine
 10
93.29824133099027
 20
140.6679299491521
 30
0.0
 11
93.29824133099038
 21
140.2179299491529
 31
0.0
  0
LINE
  5
11E
330
1F
100
AcDbEntity
  8
0
  6
Continuous
 62
     7
100
AcDbLine
 10
93.29824133099004
 20
142.4744766799546
 30
0.0
 11
108.4221107693536
 21
142.4744766799543
 31
0.0
  0
LINE
  5
11F
330
1F
100
AcDbEntity
  8
0
  6
Continuous
 62
     7
100
AcDbLine
 10
93.29824133099004
 20
142.4986688695143
 30
0.0
 11
108.5901709189814
 21
142.4986688695143
 31
0.0
  0
LINE
  5
120
330
1F
100
AcDbEntity
  8
0
  6
Continuous
 62
     7
100
AcDbLine
 10
93.29824133099004
 20
143.4362307062784
 30
0.0
 11
108.1283840791696
 21
143.4362307062784
 31
0.0
  0
LINE
  5
121
330
1F
100
AcDbEntity
  8
0
  6
Continuous
 62
     7
100
AcDbLine
 10
108.1283840791696
 20
143.4362307062784
 30
0.0
 11
108.3006403243713
 21
143.4466835526053
 31
0.0
  0
LINE
  5
122
330
1F
100
AcDbEntity
  8
0
  6
Continuous
 62
     7
100
AcDbLine
 10
93.29824133099004
 20
145.3834671928206
 30
0.0
 11
108.2461617959582
 21
145.3834671928206
 31
0.0
  0
LINE
  5
123
330
1F
100
AcDbEntity
  8
0
  6
Continuous
 62
     7
100
AcDbLine
 10
93.29824133099004
 20
145.3661023750538
 30
0.0
 11
108.4167355023488
 21
145.3661023750538
 31
0.0
  0
LINE
  5
124
330
1F
100
AcDbEntity
  8
0
  6
Continuous
 62
     7
100
AcDbLine
 10
108.2461617959582
 20
145.3834671928206
 30
0.0
 11
108.4167355023488
 21
145.3661023750538
 31
0.0
  0
LINE
  5
125
330
1F
100
AcDbEntity
  8
0
  6
Continuous
 62
     7
100
AcDbLine
 10
93.29824133099027
 20
140.6679299491521
 30
0.0
 11
109.6863212432925
 21
140.6679299491521
 31
0.0
  0
LINE
  5
126
330
1F
100
AcDbEntity
  8
0
  6
Continuous
 62
     7
100
AcDbLine
 10
93.29824133099027
 20
141.5456837952408
 30
0.0
 11
108.9448144348219
 21
141.5456837952407
 31
0.0
  0
LINE
  5
127
330
1F
100
AcDbEntity
  8
0
  6
Continuous
 62
     7
100
AcDbLine
 10
93.29824133099038
 20
140.7179299491521
 30
0.0
 11
109.8363212432923
 21
140.7179299491524
 31
0.0
  0
LINE
  5
128
330
1F
100
AcDbEntity
  8
0
  6
Continuous
 62
     7
100
AcDbLine
 10
93.29824133099004
 20
142.4744766799546
 30
0.0
 11
93.29824133099027
 21
141.5456837952408
 31
0.0
  0
LINE
  5
129
330
1F
100
AcDbEntity
  8
0
  6
Continuous
 62
     7
100
AcDbLine
 10
108.5901709189814
 20
142.4986688695143
 30
0.0
 11
108.4221107693536
 21
142.4744766799543
 31
0.0
  0
LINE
  5
12A
330
1F
100
AcDbEntity
  8
0
  6
Continuous
 62
     7
100
AcDbLine
 10
108.9448144348219
 20
141.5456837952407
 30
0.0
 11
109.1054073892286
 21
141.5831444545823
 31
0.0
  0
LINE
  5
12B
330
1F
100
AcDbEntity
  8
0
  6
Continuous
 62
     7
100
AcDbLine
 10
109.8363212432923
 20
140.7179299491524
 30
0.0
 11
109.6863212432925
 21
140.6679299491521
 31
0.0
  0
LINE
  5
12C
330
1F
100
AcDbEntity
  8
0
  6
Continuous
 62
     7
100
AcDbLine
 10
93.29824133099027
 20
144.4122264260696
 30
0.0
 11
93.29824133099004
 21
143.4362307062784
 31
0.0
  0
LINE
  5
12D
330
1F
100
AcDbEntity
  8
0
  6
Continuous
 62
     7
100
AcDbLine
 10
93.29824133099027
 20
144.4122264260696
 30
0.0
 11
108.0693514201849
 21
144.4122264260696
 31
0.0
  0
LINE
  5
12E
330
1F
100
AcDbEntity
  8
0
  6
Continuous
 62
     7
100
AcDbLine
 10
108.2424509890866
 20
144.4087364763994
 30
0.0
 11
108.0693514201849
 21
144.4122264260696
 31
0.0
  0
LINE
  5
12F
330
1F
100
AcDbEntity
  8
0
  6
Continuous
 62
     7
100
AcDbLine
 10
93.29824133099038
 20
140.2179299491529
 30
0.0
 11
93.29824133099038
 21
139.8582996218725
 31
0.0
  0
LINE
  5
130
330
1F
100
AcDbEntity
  8
0
  6
Continuous
 62
     7
100
AcDbLine
 10
110.6321986081901
 20
139.8582996218725
 30
0.0
 11
93.29824133099038
 21
139.8582996218725
 31
0.0
  0
LINE
  5
131
330
1F
100
AcDbEntity
  8
0
  6
Continuous
 62
     7
100
AcDbLine
 10
110.6321986081901
 20
139.8582996218725
 30
0.0
 11
110.7686860744059
 21
139.9198657694052
 31
0.0
  0
LINE
  5
132
330
1F
100
AcDbEntity
  8
0
  6
Continuous
 62
     7
100
AcDbLine
 10
93.29824133099027
 20
140.6679299491521
 30
0.0
 11
93.29824133099038
 21
140.7179299491521
 31
0.0
  0
LINE
  5
133
330
1F
100
AcDbEntity
  8
0
  6
Continuous
 62
     7
100
AcDbLine
 10
93.29824133099027
 20
141.5456837952408
 30
0.0
 11
93.29824133099038
 21
140.7179299491521
 31
0.0
  0
LINE
  5
134
330
1F
100
AcDbEntity
  8
0
  6
Continuous
 62
     7
100
AcDbLine
 10
93.29824133099004
 20
142.4744766799546
 30
0.0
 11
93.29824133099004
 21
142.4986688695143
 31
0.0
  0
LINE
  5
135
330
1F
100
AcDbEntity
  8
0
  6
Continuous
 62
     7
100
AcDbLine
 10
93.29824133099004
 20
143.4362307062784
 30
0.0
 11
93.29824133099004
 21
142.4986688695143
 31
0.0
  0
LINE
  5
136
330
1F
100
AcDbEntity
  8
0
  6
Continuous
 62
     7
100
AcDbLine
 10
93.29824133099004
 20
145.3661023750538
 30
0.0
 11
93.29824133099004
 21
145.3834671928206
 31
0.0
  0
LINE
  5
137
330
1F
100
AcDbEntity
  8
0
  6
Continuous
 62
     7
100
AcDbLine
 10
93.29824133099004
 20
145.3661023750538
 30
0.0
 11
93.29824133099027
 21
144.4122264260696
 31
0.0
  0
LINE
  5
138
330
1F
100
AcDbEntity
  8
0
  6
Continuous
 62
     7
100
AcDbLine
 10
88.29818582168019
 20
144.3183965985729
 30
0.0
 11
87.4981858216891
 21
144.7756803395799
 31
0.0
  0
LINE
  5
139
330
1F
100
AcDbEntity
  8
0
  6
Continuous
 62
     7
100
AcDbLine
 10
87.59824133098806
 20
144.2577564316548
 30
0.0
 11
88.09829684114328
 21
143.971922363658
 31
0.0
  0
LINE
  5
13A
330
1F
100
AcDbEntity
  8
0
  6
Continuous
 62
     7
100
AcDbLine
 10
87.59824133098806
 20
144.2577564316548
 30
0.0
 11
87.59824133098806
 21
143.4929299491522
 31
0.0
  0
LINE
  5
13B
330
1F
100
AcDbEntity
  8
0
  6
Continuous
 62
     7
100
AcDbLine
 10
87.59824133098806
 20
143.4929299491522
 30
0.0
 11
88.19824133099007
 21
143.4929299491522
 31
0.0
  0
LINE
  5
13C
330
1F
100
AcDbEntity
  8
0
  6
Continuous
 62
     7
100
AcDbLine
 10
85.88484387136856
 20
143.4240863173278
 30
0.0
 11
86.39824133099006
 21
144.3133168018686
 31
0.0
  0
LINE
  5
13D
330
1F
100
AcDbEntity
  8
0
  6
Continuous
 62
     7
100
AcDbLine
 10
85.79824133099197
 20
146.0929299491488
 30
0.0
 11
90.69673169726389
 21
143.2929299491487
 31
0.0
  0
LINE
  5
13E
330
1F
100
AcDbEntity
  8
0
  6
Continuous
 62
     7
100
AcDbLine
 10
90.94786674995879
 20
143.3797476765596
 30
0.0
 11
85.89749216892886
 21
146.2665654039661
 31
0.0
  0
LINE
  5
13F
330
1F
100
AcDbEntity
  8
0
  6
Continuous
 62
     7
100
AcDbLine
 10
84.19835234959356
 20
141.7529632014294
 30
0.0
 11
85.49829684029356
 21
141.009925441643
 31
0.0
  0
LINE
  5
140
330
1F
100
AcDbEntity
  8
0
  6
Continuous
 62
     7
100
AcDbLine
 10
85.6981858216671
 20
141.3563996760752
 30
0.0
 11
84.39824133099006
 21
142.0994374358487
 31
0.0
  0
LINE
  5
141
330
1F
100
AcDbEntity
  8
0
  6
Continuous
 62
     7
100
AcDbLine
 10
85.79824133099004
 20
140.4929299491522
 30
0.0
 11
80.89964159494878
 21
143.2929299491487
 31
0.0
  0
LINE
  5
142
330
1F
100
AcDbEntity
  8
0
  6
Continuous
 62
     7
100
AcDbLine
 10
80.64867270428869
 20
143.2060153064993
 30
0.0
 11
85.69899216329668
 21
140.3192935396288
 31
0.0
  0
LINE
  5
143
330
1F
100
AcDbEntity
  8
0
  6
Continuous
 62
     7
100
AcDbLine
 10
85.1982413309882
 20
144.3133168018677
 30
0.0
 11
85.71163879061169
 21
143.4240863173275
 31
0.0
  0
LINE
  5
144
330
1F
100
AcDbEntity
  8
0
  6
Continuous
 62
     7
100
AcDbLine
 10
85.7982413309881
 20
144.0740863173264
 30
0.0
 11
85.17144641174497
 21
145.1597269633815
 31
0.0
  0
LINE
  5
145
330
1F
100
AcDbEntity
  8
0
  6
Continuous
 62
     7
100
AcDbLine
 10
80.89964159494878
 20
143.2929299491487
 30
0.0
 11
85.79824133099197
 21
146.0929299491488
 31
0.0
  0
LINE
  5
146
330
1F
100
AcDbEntity
  8
0
  6
Continuous
 62
     7
100
AcDbLine
 10
85.69899216329816
 20
146.2665663586721
 30
0.0
 11
80.64867270429062
 21
143.3798445918015
 31
0.0
  0
LINE
  5
147
330
1F
100
AcDbEntity
  8
0
  6
Continuous
 62
     7
100
AcDbLine
 10
88.09829683944514
 20
142.6139037381101
 30
0.0
 11
87.5982413309901
 21
142.3281053090851
 31
0.0
  0
LINE
  5
148
330
1F
100
AcDbEntity
  8
0
  6
Continuous
 62
     7
100
AcDbLine
 10
87.49818582168007
 20
141.8101795587193
 30
0.0
 11
88.29818582168537
 21
142.2674295041776
 31
0.0
  0
LINE
  5
149
330
1F
100
AcDbEntity
  8
0
  6
Continuous
 62
     7
100
AcDbLine
 10
87.5982413309901
 20
143.0929299491523
 30
0.0
 11
88.19824133099007
 21
143.0929299491523
 31
0.0
  0
LINE
  5
14A
330
1F
100
AcDbEntity
  8
0
  6
Continuous
 62
     7
100
AcDbLine
 10
87.5982413309901
 20
143.0929299491523
 30
0.0
 11
87.5982413309901
 21
142.3281053090851
 31
0.0
  0
LINE
  5
14B
330
1F
100
AcDbEntity
  8
0
  6
Continuous
 62
     7
100
AcDbLine
 10
90.69673169726389
 20
143.2929299491487
 30
0.0
 11
85.79824133099004
 21
140.4929299491522
 31
0.0
  0
LINE
  5
14C
330
1F
100
AcDbEntity
  8
0
  6
Continuous
 62
     7
100
AcDbLine
 10
87.19824133099007
 20
144.6024432223706
 30
0.0
 11
87.19824133099007
 21
141.9834166759332
 31
0.0
  0
LINE
  5
14D
330
1F
100
AcDbEntity
  8
0
  6
Continuous
 62
     7
100
AcDbLine
 10
84.39824133099006
 20
144.6067317384539
 30
0.0
 11
84.39824133099006
 21
142.0994374358487
 31
0.0
  0
LINE
  5
14E
330
1F
100
AcDbEntity
  8
0
  6
Continuous
 62
     7
100
AcDbLine
 10
83.5982413309901
 20
144.1451932769155
 30
0.0
 11
83.59824133099039
 21
142.4406666213877
 31
0.0
  0
LINE
  5
14F
330
1F
100
AcDbEntity
  8
0
  6
Continuous
 62
     7
100
AcDbLine
 10
83.19824133099007
 20
144.1451932769155
 30
0.0
 11
83.19824133098979
 21
142.440666621388
 31
0.0
  0
LINE
  5
150
330
1F
100
AcDbEntity
  8
0
  6
Continuous
 62
     7
100
AcDbLine
 10
84.79824133099004
 20
145.0597269633828
 30
0.0
 11
84.79824133098975
 21
142.4406666213877
 31
0.0
  0
LINE
  5
151
330
1F
100
AcDbEntity
  8
0
  6
Continuous
 62
     7
100
AcDbLine
 10
85.1982413309882
 20
144.3133168018677
 30
0.0
 11
85.19824133099036
 21
142.4406666213877
 31
0.0
  0
LINE
  5
152
330
1F
100
AcDbEntity
  8
0
  6
Continuous
 62
     7
100
AcDbLine
 10
86.79824133099004
 20
145.0597269633828
 30
0.0
 11
86.79824133099038
 21
141.5261329349135
 31
0.0
  0
LINE
  5
153
330
1F
100
AcDbEntity
  8
0
  6
Continuous
 62
     7
100
AcDbLine
 10
86.42503625005179
 20
145.1597269630707
 30
0.0
 11
85.7982413309881
 21
144.0740863173264
 31
0.0
  0
LINE
  5
154
330
1F
100
AcDbEntity
  8
0
  6
Continuous
 62
     7
100
AcDbLine
 10
86.39824133099006
 20
144.3133168018686
 30
0.0
 11
86.39824133098978
 21
141.526132934909
 31
0.0
  0
LINE
  5
155
330
1F
100
AcDbEntity
  8
0
  6
Continuous
 62
     7
100
AcDbLine
 10
83.99824133099008
 20
144.6067317384554
 30
0.0
 11
83.99824133099008
 21
142.0994374358484
 31
0.0
  0
LINE
  5
156
330
1F
100
AcDbEntity
  8
0
  6
Continuous
 62
     7
100
AcDbLine
 10
78.59824133099033
 20
139.9179299491529
 30
0.0
 11
92.99824133099025
 21
139.9179299491529
 31
0.0
  0
LINE
  5
157
330
1F
100
AcDbEntity
  8
0
  6
Continuous
 62
     7
100
AcDbLine
 10
78.29824133095957
 20
140.2179299491528
 30
0.0
 11
78.29824133099038
 21
139.8582996218725
 31
0.0
  0
LINE
  5
158
330
1F
100
AcDbEntity
  8
0
  6
Continuous
 62
     7
100
AcDbLine
 10
78.29824133099038
 20
140.6679299491521
 30
0.0
 11
78.29824133095957
 21
140.2179299491528
 31
0.0
  0
LINE
  5
159
330
1F
100
AcDbEntity
  8
0
  6
Continuous
 62
     7
100
AcDbLine
 10
78.29824133099038
 20
140.7179299491521
 30
0.0
 11
61.76016141868848
 21
140.7179299491521
 31
0.0
  0
LINE
  5
15A
330
1F
100
AcDbEntity
  8
0
  6
Continuous
 62
     7
100
AcDbLine
 10
78.29824133099038
 20
140.6679299491521
 30
0.0
 11
78.29824133099038
 21
140.7179299491521
 31
0.0
  0
LINE
  5
15B
330
1F
100
AcDbEntity
  8
0
  6
Continuous
 62
     7
100
AcDbLine
 10
78.29824133099027
 20
141.5456837952408
 30
0.0
 11
78.29824133099038
 21
140.7179299491521
 31
0.0
  0
LINE
  5
15C
330
1F
100
AcDbEntity
  8
0
  6
Continuous
 62
     7
100
AcDbLine
 10
62.49107527275237
 20
141.5831444545823
 30
0.0
 11
62.65166822715918
 21
141.5456837952408
 31
0.0
  0
LINE
  5
15D
330
1F
100
AcDbEntity
  8
0
  6
Continuous
 62
     7
100
AcDbLine
 10
60.82779658757505
 20
139.9198657694053
 30
0.0
 11
60.96428405379083
 21
139.8582996218725
 31
0.0
  0
LINE
  5
15E
330
1F
100
AcDbEntity
  8
0
  6
Continuous
 62
     7
100
AcDbLine
 10
61.91016141868857
 20
140.6679299491521
 30
0.0
 11
61.76016141868848
 21
140.7179299491521
 31
0.0
  0
LINE
  5
15F
330
1F
100
AcDbEntity
  8
0
  6
Continuous
 62
     7
100
AcDbLine
 10
78.29824133099004
 20
142.4744766799546
 30
0.0
 11
78.29824133099027
 21
141.5456837952408
 31
0.0
  0
LINE
  5
160
330
1F
100
AcDbEntity
  8
0
  6
Continuous
 62
     7
100
AcDbLine
 10
62.65166822715918
 20
141.5456837952408
 30
0.0
 11
78.29824133099027
 21
141.5456837952408
 31
0.0
  0
LINE
  5
161
330
1F
100
AcDbEntity
  8
0
  6
Continuous
 62
     7
100
AcDbLine
 10
78.29824133099004
 20
142.4986688695143
 30
0.0
 11
78.29824133099004
 21
142.4744766799546
 31
0.0
  0
LINE
  5
162
330
1F
100
AcDbEntity
  8
0
  6
Continuous
 62
     7
100
AcDbLine
 10
63.00631174299969
 20
142.4986688695143
 30
0.0
 11
78.29824133099004
 21
142.4986688695143
 31
0.0
  0
LINE
  5
163
330
1F
100
AcDbEntity
  8
0
  6
Continuous
 62
     7
100
AcDbLine
 10
78.29824133099004
 20
143.4362307062784
 30
0.0
 11
78.29824133099004
 21
142.4986688695143
 31
0.0
  0
LINE
  5
164
330
1F
100
AcDbEntity
  8
0
  6
Continuous
 62
     7
100
AcDbLine
 10
63.17437189262734
 20
142.4744766799546
 30
0.0
 11
78.29824133099004
 21
142.4744766799546
 31
0.0
  0
LINE
  5
165
330
1F
100
AcDbEntity
  8
0
  6
Continuous
 62
     7
100
AcDbLine
 10
78.29824133099004
 20
144.4122264260696
 30
0.0
 11
78.29824133099004
 21
143.4362307062784
 31
0.0
  0
LINE
  5
166
330
1F
100
AcDbEntity
  8
0
  6
Continuous
 62
     7
100
AcDbLine
 10
78.29824133099004
 20
145.3834671928206
 30
0.0
 11
78.29824133099004
 21
145.3661023750538
 31
0.0
  0
LINE
  5
167
330
1F
100
AcDbEntity
  8
0
  6
Continuous
 62
     7
100
AcDbLine
 10
78.29824133099004
 20
146.331048909777
 30
0.0
 11
78.29824133099004
 21
145.3834671928206
 31
0.0
  0
LINE
  5
168
330
1F
100
AcDbEntity
  8
0
  6
Continuous
 62
     7
100
AcDbLine
 10
63.17974715963214
 20
145.3661023750538
 30
0.0
 11
63.35032086602286
 21
145.3834671928206
 31
0.0
  0
LINE
  5
169
330
1F
100
AcDbEntity
  8
0
  6
Continuous
 62
     7
100
AcDbLine
 10
63.17437189262734
 20
142.4744766799546
 30
0.0
 11
63.00631174299969
 21
142.4986688695143
 31
0.0
  0
LINE
  5
16A
330
1F
100
AcDbEntity
  8
0
  6
Continuous
 62
     7
100
AcDbLine
 10
78.29824133099038
 20
139.8582996218725
 30
0.0
 11
60.96428405379083
 21
139.8582996218725
 31
0.0
  0
LINE
  5
16B
330
1F
100
AcDbEntity
  8
0
  6
Continuous
 62
     7
100
AcDbLine
 10
78.29824133099038
 20
140.6679299491521
 30
0.0
 11
61.91016141868857
 21
140.6679299491521
 31
0.0
  0
LINE
  5
16C
330
1F
100
AcDbEntity
  8
0
  6
Continuous
 62
     7
100
AcDbLine
 10
85.8974921689308
 20
140.3192944943349
 30
0.0
 11
90.94786674996078
 21
143.2061122217416
 31
0.0
  0
LINE
  5
16D
330
1F
100
AcDbEntity
  8
0
  6
Continuous
 62
     7
100
AcDbLine
 10
52.44824133099002
 20
151.167929949153
 30
0.0
 11
48.79824133098992
 21
151.1679299491536
 31
0.0
  0
LINE
  5
16E
330
1F
100
AcDbEntity
  8
0
  6
Continuous
 62
     7
100
AcDbLine
 10
48.29824133099015
 20
150.6679299491536
 30
0.0
 11
48.29824133099015
 21
131.6309865426969
 31
0.0
  0
LINE
  5
16F
330
1F
100
AcDbEntity
  8
0
  6
Continuous
 62
     7
100
AcDbLine
 10
48.29824133099015
 20
119.2679299491548
 30
0.0
 11
48.29824133099015
 21
120.933536999116
 31
0.0
  0
LINE
  5
170
330
1F
100
AcDbEntity
  8
0
  6
Continuous
 62
     7
100
AcDbLine
 10
48.29824133099038
 20
127.6679299491553
 30
0.0
 11
48.29824133099015
 21
131.6309865426969
 31
0.0
  0
LINE
  5
171
330
1F
100
AcDbEntity
  8
0
  6
Continuous
 62
     7
100
AcDbLine
 10
48.29824133099015
 20
120.933536999116
 30
0.0
 11
48.29824133099038
 21
127.6679299491553
 31
0.0
  0
LINE
  5
172
330
1F
100
AcDbEntity
  8
0
  6
Continuous
 62
     7
100
AcDbLine
 10
48.79824133099015
 20
118.7679299491548
 30
0.0
 11
53.54824133099015
 21
118.7679299491548
 31
0.0
  0
LINE
  5
173
330
1F
100
AcDbEntity
  8
0
  6
Continuous
 62
     7
100
AcDbLine
 10
123.2982413309899
 20
131.6309865426969
 30
0.0
 11
123.2982413309899
 21
150.6679299491536
 31
0.0
  0
LINE
  5
174
330
1F
100
AcDbEntity
  8
0
  6
Continuous
 62
     7
100
AcDbLine
 10
123.2982413309902
 20
127.3679299491551
 30
0.0
 11
123.2982413309899
 21
131.6309865426969
 31
0.0
  0
LINE
  5
175
330
1F
100
AcDbEntity
  8
0
  6
Continuous
 62
     7
100
AcDbLine
 10
123.2982413309899
 20
120.933536999116
 30
0.0
 11
123.2982413309902
 21
123.5679299491551
 31
0.0
  0
LINE
  5
176
330
1F
100
AcDbEntity
  8
0
  6
Continuous
 62
     7
100
AcDbLine
 10
123.2982413309902
 20
123.5679299491551
 30
0.0
 11
123.2982413309902
 21
127.3679299491551
 31
0.0
  0
LINE
  5
177
330
1F
100
AcDbEntity
  8
0
  6
Continuous
 62
     7
100
AcDbLine
 10
123.2982413309899
 20
119.2679299491548
 30
0.0
 11
123.2982413309899
 21
120.933536999116
 31
0.0
  0
LINE
  5
178
330
1F
100
AcDbEntity
  8
0
  6
Continuous
 62
     7
100
AcDbLine
 10
122.7982413309899
 20
118.7679299491548
 30
0.0
 11
118.0482413309899
 21
118.7679299491548
 31
0.0
  0
LINE
  5
179
330
1F
100
AcDbEntity
  8
0
  6
Continuous
 62
     7
100
AcDbLine
 10
118.0482413309899
 20
118.7679299491548
 30
0.0
 11
118.0482413309899
 21
120.5678601483064
 31
0.0
  0
LINE
  5
17A
330
1F
100
AcDbEntity
  8
0
  6
Continuous
 62
     7
100
AcDbLine
 10
118.0482413309899
 20
130.9473228121497
 30
0.0
 11
118.0482413309899
 21
120.5678601483064
 31
0.0
  0
LINE
  5
17B
330
1F
100
AcDbEntity
  8
0
  6
Continuous
 62
     7
100
AcDbLine
 10
119.1482413309901
 20
151.1679299491536
 30
0.0
 11
122.7982413309902
 21
151.1679299491536
 31
0.0
  0
LINE
  5
17C
330
1F
100
AcDbEntity
  8
0
  6
Continuous
 62
     7
100
AcDbLine
 10
53.54824133099015
 20
118.7679299491548
 30
0.0
 11
53.54824133099015
 21
120.5678601483064
 31
0.0
  0
LINE
  5
17D
330
1F
100
AcDbEntity
  8
0
  6
Continuous
 62
     7
100
AcDbLine
 10
53.54824133099015
 20
130.9473228121497
 30
0.0
 11
53.54824133099015
 21
120.5678601483064
 31
0.0
  0
LINE
  5
17E
330
1F
100
AcDbEntity
  8
0
  6
Continuous
 62
     7
100
AcDbLine
 10
56.34824133099011
 20
133.5583650533351
 30
0.0
 11
115.24824133099
 21
133.5583650533351
 31
0.0
  0
LINE
  5
17F
330
1F
100
AcDbEntity
  8
0
  6
Continuous
 62
     7
100
AcDbLine
 10
43.24824146504039
 20
100.6636363161206
 30
0.0
 11
43.24824146504039
 21
112.9979299491551
 31
0.0
  0
LINE
  5
180
330
1F
100
AcDbEntity
  8
0
  6
Continuous
 62
     7
100
AcDbLine
 10
53.54824133099015
 20
122.2179299491551
 30
0.0
 11
53.69824133099002
 21
122.0679299491551
 31
0.0
  0
LINE
  5
181
330
1F
100
AcDbEntity
  8
0
  6
Continuous
 62
     7
100
AcDbLine
 10
53.69824133099002
 20
128.8679299491551
 30
0.0
 11
53.69824133099002
 21
122.0679299491551
 31
0.0
  0
LINE
  5
182
330
1F
100
AcDbEntity
  8
0
  6
Continuous
 62
     7
100
AcDbLine
 10
53.54824133099015
 20
128.7179299491551
 30
0.0
 11
53.69824133099002
 21
128.8679299491551
 31
0.0
  0
LINE
  5
183
330
1F
100
AcDbEntity
  8
0
  6
Continuous
 62
     7
100
AcDbLine
 10
53.69824133099002
 20
122.0679299491551
 30
0.0
 11
54.13391949698149
 21
122.0679299491551
 31
0.0
  0
LINE
  5
184
330
1F
100
AcDbEntity
  8
0
  6
Continuous
 62
     7
100
AcDbLine
 10
53.69824133099002
 20
128.8679299491551
 30
0.0
 11
54.19326219795863
 21
128.8679299491551
 31
0.0
  0
LINE
  5
185
330
1F
100
AcDbEntity
  8
0
  6
Continuous
 62
     7
100
AcDbLine
 10
54.08810344108002
 20
116.8179299491551
 30
0.0
 11
44.24824146504039
 21
116.8179299491551
 31
0.0
  0
LINE
  5
186
330
1F
100
AcDbEntity
  8
0
  6
Continuous
 62
     7
100
AcDbLine
 10
54.08810344108002
 20
116.8179299491551
 30
0.0
 11
54.13391949698149
 21
122.0679299491551
 31
0.0
  0
LINE
  5
187
330
1F
100
AcDbEntity
  8
0
  6
Continuous
 62
     7
100
AcDbLine
 10
54.06764078793464
 20
114.4731421471513
 30
0.0
 11
54.08810344108002
 21
116.8179299491551
 31
0.0
  0
LINE
  5
188
330
1F
100
AcDbEntity
  8
0
  6
Continuous
 62
     7
100
AcDbLine
 10
54.13391949698149
 20
122.0679299491551
 30
0.0
 11
54.19326219795863
 21
128.8679299491551
 31
0.0
  0
LINE
  5
189
330
1F
100
AcDbEntity
  8
0
  6
Continuous
 62
     7
100
AcDbLine
 10
128.2482414650405
 20
100.663636316937
 30
0.0
 11
128.2482414650405
 21
115.8179299491551
 31
0.0
  0
LINE
  5
18A
330
1F
100
AcDbEntity
  8
0
  6
Continuous
 62
     7
100
AcDbLine
 10
128.2482414650405
 20
84.16792994915505
 30
0.0
 11
128.2482414650405
 21
100.663636316937
 31
0.0
  0
LINE
  5
18B
330
1F
100
AcDbEntity
  8
0
  6
Continuous
 62
     7
100
AcDbLine
 10
127.2482414650405
 20
84.16792994915505
 30
0.0
 11
128.2482414650405
 21
84.16792994915505
 31
0.0
  0
LINE
  5
18C
330
1F
100
AcDbEntity
  8
0
  6
Continuous
 62
     7
100
AcDbLine
 10
123.2982413309902
 20
123.5679299491551
 30
0.0
 11
123.2982413309902
 21
127.3679299491551
 31
0.0
  0
LINE
  5
18D
330
1F
100
AcDbEntity
  8
0
  6
Continuous
 62
     7
100
AcDbLine
 10
117.4083794890008
 20
116.8179299491551
 30
0.0
 11
127.2482414650405
 21
116.8179299491551
 31
0.0
  0
LINE
  5
18E
330
1F
100
AcDbEntity
  8
0
  6
Continuous
 62
     7
100
AcDbLine
 10
113.4459464683358
 20
100.667929949155
 30
0.0
 11
127.2482414650405
 21
100.667929949155
 31
0.0
  0
LINE
  5
18F
330
1F
100
AcDbEntity
  8
0
  6
Continuous
 62
     7
100
AcDbLine
 10
118.0482413309902
 20
122.3179299491551
 30
0.0
 11
117.7982413309902
 21
122.0679299491551
 31
0.0
  0
LINE
  5
190
330
1F
100
AcDbEntity
  8
0
  6
Continuous
 62
     7
100
AcDbLine
 10
117.4083794890008
 20
116.8179299491551
 30
0.0
 11
117.3625634330994
 21
122.0679299491551
 31
0.0
  0
LINE
  5
191
330
1F
100
AcDbEntity
  8
0
  6
Continuous
 62
     7
100
AcDbLine
 10
117.7982413309902
 20
122.0679299491551
 30
0.0
 11
117.3625634330994
 21
122.0679299491551
 31
0.0
  0
LINE
  5
192
330
1F
100
AcDbEntity
  8
0
  6
Continuous
 62
     7
100
AcDbLine
 10
110.9962046242187
 20
106.7825269575308
 30
0.0
 11
109.1582704976592
 21
106.7825269575308
 31
0.0
  0
LINE
  5
193
330
1F
100
AcDbEntity
  8
0
  6
Continuous
 62
     7
100
AcDbLine
 10
113.4459464683358
 20
87.16792994915505
 30
0.0
 11
109.1582704976592
 21
87.16792994915505
 31
0.0
  0
LINE
  5
194
330
1F
100
AcDbEntity
  8
0
  6
Continuous
 62
     7
100
AcDbLine
 10
107.9982414650405
 20
83.16792994915505
 30
0.0
 11
107.9982414650405
 21
86.16792994915505
 31
0.0
  0
LINE
  5
195
330
1F
100
AcDbEntity
  8
0
  6
Continuous
 62
     7
100
AcDbLine
 10
109.1582704976592
 20
87.16792994915505
 30
0.0
 11
109.1582704976592
 21
106.7825269575308
 31
0.0
  0
LINE
  5
196
330
1F
100
AcDbEntity
  8
0
  6
Continuous
 62
     7
100
AcDbLine
 10
117.4982414650405
 20
84.16792994915505
 30
0.0
 11
117.4982414650405
 21
83.16792994915505
 31
0.0
  0
LINE
  5
197
330
1F
100
AcDbEntity
  8
0
  6
Continuous
 62
     7
100
AcDbLine
 10
114.4982414650405
 20
83.16792994915505
 30
0.0
 11
117.4982414650405
 21
83.16792994915505
 31
0.0
  0
LINE
  5
198
330
1F
100
AcDbEntity
  8
0
  6
Continuous
 62
     7
100
AcDbLine
 10
117.4982414650405
 20
84.16792994915505
 30
0.0
 11
127.2482414650405
 21
84.16792994915505
 31
0.0
  0
LINE
  5
199
330
1F
100
AcDbEntity
  8
0
  6
Continuous
 62
     7
100
AcDbLine
 10
75.24288939063246
 20
84.16792994915505
 30
0.0
 11
66.50188702799147
 21
84.16792994915505
 31
0.0
  0
LINE
  5
19A
330
1F
100
AcDbEntity
  8
0
  6
Continuous
 62
     7
100
AcDbLine
 10
117.4982414650405
 20
84.16792994915505
 30
0.0
 11
117.4982414650405
 21
86.16792994915505
 31
0.0
  0
LINE
  5
19B
330
1F
100
AcDbEntity
  8
0
  6
Continuous
 62
     7
100
AcDbLine
 10
75.24288939063246
 20
84.16792994915505
 30
0.0
 11
75.26368994271598
 21
86.16792994915505
 31
0.0
  0
LINE
  5
19C
330
1F
100
AcDbEntity
  8
0
  6
Continuous
 62
     7
100
AcDbLine
 10
96.2535935394481
 20
84.16792994915505
 30
0.0
 11
104.9945959020893
 21
84.16792994915505
 31
0.0
  0
LINE
  5
19D
330
1F
100
AcDbEntity
  8
0
  6
Continuous
 62
     7
100
AcDbLine
 10
75.24288939063246
 20
84.16792994915505
 30
0.0
 11
96.2535935394481
 21
84.16792994915505
 31
0.0
  0
LINE
  5
19E
330
1F
100
AcDbEntity
  8
0
  6
Continuous
 62
     7
100
AcDbLine
 10
107.9982414650405
 20
83.16792994915505
 30
0.0
 11
104.9945959020893
 21
83.16792994915505
 31
0.0
  0
LINE
  5
19F
330
1F
100
AcDbEntity
  8
0
  6
Continuous
 62
     7
100
AcDbLine
 10
104.9945959020893
 20
84.16792994915505
 30
0.0
 11
104.9945959020893
 21
83.16792994915505
 31
0.0
  0
LINE
  5
1A0
330
1F
100
AcDbEntity
  8
0
  6
Continuous
 62
     7
100
AcDbLine
 10
114.4982414650405
 20
83.16792994915505
 30
0.0
 11
107.9982414650405
 21
83.16792994915505
 31
0.0
  0
LINE
  5
1A1
330
1F
100
AcDbEntity
  8
0
  6
Continuous
 62
     7
100
AcDbLine
 10
116.4982414650405
 20
87.16792994915505
 30
0.0
 11
114.4982414650405
 21
87.16792994915505
 31
0.0
  0
LINE
  5
1A2
330
1F
100
AcDbEntity
  8
0
  6
Continuous
 62
     7
100
AcDbLine
 10
108.3622116993066
 20
87.16792994915505
 30
0.0
 11
97.7781165381835
 21
87.16792994915505
 31
0.0
  0
LINE
  5
1A3
330
1F
100
AcDbEntity
  8
0
  6
Continuous
 62
     7
100
AcDbLine
 10
109.1582704976592
 20
87.16792994915505
 30
0.0
 11
108.3622116993066
 21
87.16792994915505
 31
0.0
  0
LINE
  5
1A4
330
1F
100
AcDbEntity
  8
0
  6
Continuous
 62
     7
100
AcDbLine
 10
114.4982414650405
 20
87.16792994915505
 30
0.0
 11
113.4459464683358
 21
87.16792994915505
 31
0.0
  0
LINE
  5
1A5
330
1F
100
AcDbEntity
  8
0
  6
Continuous
 62
     7
100
AcDbLine
 10
96.2535935394481
 20
84.16792994915505
 30
0.0
 11
96.2327929873648
 21
86.16792994915505
 31
0.0
  0
LINE
  5
1A6
330
1F
100
AcDbEntity
  8
0
  6
Continuous
 62
     7
100
AcDbLine
 10
113.4459464683358
 20
100.667929949155
 30
0.0
 11
113.4459464683358
 21
87.16792994915505
 31
0.0
  0
LINE
  5
1A7
330
1F
100
AcDbEntity
  8
0
  6
Continuous
 62
     7
100
AcDbLine
 10
117.7982413309902
 20
128.8679299491551
 30
0.0
 11
117.3032207321222
 21
128.8679299491551
 31
0.0
  0
LINE
  5
1A8
330
1F
100
AcDbEntity
  8
0
  6
Continuous
 62
     7
100
AcDbLine
 10
117.7982413309902
 20
122.0679299491551
 30
0.0
 11
117.7982413309902
 21
128.8679299491551
 31
0.0
  0
LINE
  5
1A9
330
1F
100
AcDbEntity
  8
0
  6
Continuous
 62
     7
100
AcDbLine
 10
117.3625634330994
 20
122.0679299491551
 30
0.0
 11
117.3032207321222
 21
128.8679299491551
 31
0.0
  0
LINE
  5
1AA
330
1F
100
AcDbEntity
  8
0
  6
Continuous
 62
     7
100
AcDbLine
 10
117.4288421421464
 20
114.4731421471306
 30
0.0
 11
117.4083794890008
 21
116.8179299491551
 31
0.0
  0
LINE
  5
1AB
330
1F
100
AcDbEntity
  8
0
  6
Continuous
 62
     7
100
AcDbLine
 10
118.0482413309902
 20
128.617929949155
 30
0.0
 11
117.7982413309902
 21
128.8679299491551
 31
0.0
  0
LINE
  5
1AC
330
1F
100
AcDbEntity
  8
0
  6
Continuous
 62
     7
100
AcDbLine
 10
117.3032207321222
 20
128.8679299491551
 30
0.0
 11
117.2693039556951
 21
132.7544075766649
 31
0.0
  0
LINE
  5
1AD
330
1F
100
AcDbEntity
  8
0
  6
Continuous
 62
     7
100
AcDbLine
 10
54.19326219795863
 20
128.8679299491551
 30
0.0
 11
54.22627530376695
 21
132.6508571803176
 31
0.0
  0
LINE
  5
1AE
330
1F
100
AcDbEntity
  8
0
  6
Continuous
 62
     7
100
AcDbLine
 10
60.50027830586356
 20
106.7825269575307
 30
0.0
 11
62.3382124324217
 21
106.7825269575308
 31
0.0
  0
LINE
  5
1AF
330
1F
100
AcDbEntity
  8
0
  6
Continuous
 62
     7
100
AcDbLine
 10
58.05053646174503
 20
87.16792994915505
 30
0.0
 11
62.3382124324217
 21
87.16792994915505
 31
0.0
  0
LINE
  5
1B0
330
1F
100
AcDbEntity
  8
0
  6
Continuous
 62
     7
100
AcDbLine
 10
62.3382124324217
 20
87.16792994915505
 30
0.0
 11
63.13427123077423
 21
87.16792994915505
 31
0.0
  0
LINE
  5
1B1
330
1F
100
AcDbEntity
  8
0
  6
Continuous
 62
     7
100
AcDbLine
 10
62.3382124324217
 20
87.16792994915505
 30
0.0
 11
62.3382124324217
 21
106.7825269575308
 31
0.0
  0
LINE
  5
1B2
330
1F
100
AcDbEntity
  8
0
  6
Continuous
 62
     7
100
AcDbLine
 10
44.24824146504039
 20
84.16792994915505
 30
0.0
 11
43.24824146504039
 21
84.16792994915505
 31
0.0
  0
LINE
  5
1B3
330
1F
100
AcDbEntity
  8
0
  6
Continuous
 62
     7
100
AcDbLine
 10
53.99824146504039
 20
84.16792994915505
 30
0.0
 11
44.24824146504039
 21
84.16792994915505
 31
0.0
  0
LINE
  5
1B4
330
1F
100
AcDbEntity
  8
0
  6
Continuous
 62
     7
100
AcDbLine
 10
58.05053646174503
 20
100.667929949155
 30
0.0
 11
44.24824146504039
 21
100.667929949155
 31
0.0
  0
LINE
  5
1B5
330
1F
100
AcDbEntity
  8
0
  6
Continuous
 62
     7
100
AcDbLine
 10
43.24824146504039
 20
84.16792994915505
 30
0.0
 11
43.24824146504039
 21
91.83792994915495
 31
0.0
  0
LINE
  5
1B6
330
1F
100
AcDbEntity
  8
0
  6
Continuous
 62
     7
100
AcDbLine
 10
53.99824146504039
 20
84.16792994915505
 30
0.0
 11
53.99824146504039
 21
86.16792994915505
 31
0.0
  0
LINE
  5
1B7
330
1F
100
AcDbEntity
  8
0
  6
Continuous
 62
     7
100
AcDbLine
 10
58.05053646174503
 20
100.667929949155
 30
0.0
 11
58.05053646174503
 21
87.16792994915505
 31
0.0
  0
LINE
  5
1B8
330
1F
100
AcDbEntity
  8
0
  6
Continuous
 62
     7
100
AcDbLine
 10
56.99824146504039
 20
87.16792994915505
 30
0.0
 11
58.05053646174503
 21
87.16792994915505
 31
0.0
  0
LINE
  5
1B9
330
1F
100
AcDbEntity
  8
0
  6
Continuous
 62
     7
100
AcDbLine
 10
66.50188702799147
 20
83.16792994915505
 30
0.0
 11
66.50188702799147
 21
84.16792994915505
 31
0.0
  0
LINE
  5
1BA
330
1F
100
AcDbEntity
  8
0
  6
Continuous
 62
     7
100
AcDbLine
 10
66.50188702799147
 20
83.16792994915505
 30
0.0
 11
63.49824146504039
 21
83.16792994915505
 31
0.0
  0
LINE
  5
1BB
330
1F
100
AcDbEntity
  8
0
  6
Continuous
 62
     7
100
AcDbLine
 10
56.99824146504039
 20
83.16792994915505
 30
0.0
 11
53.99824146504039
 21
83.16792994915505
 31
0.0
  0
LINE
  5
1BC
330
1F
100
AcDbEntity
  8
0
  6
Continuous
 62
     7
100
AcDbLine
 10
54.99824146504039
 20
87.16792994915505
 30
0.0
 11
56.99824146504039
 21
87.16792994915505
 31
0.0
  0
LINE
  5
1BD
330
1F
100
AcDbEntity
  8
0
  6
Continuous
 62
     7
100
AcDbLine
 10
53.99824146504039
 20
84.16792994915505
 30
0.0
 11
53.99824146504039
 21
83.16792994915505
 31
0.0
  0
LINE
  5
1BE
330
1F
100
AcDbEntity
  8
0
  6
Continuous
 62
     7
100
AcDbLine
 10
63.13427123077423
 20
87.16792994915505
 30
0.0
 11
73.71836639189729
 21
87.16792994915505
 31
0.0
  0
LINE
  5
1BF
330
1F
100
AcDbEntity
  8
0
  6
Continuous
 62
     7
100
AcDbLine
 10
63.49824146504039
 20
83.16792994915505
 30
0.0
 11
56.99824146504039
 21
83.16792994915505
 31
0.0
  0
LINE
  5
1C0
330
1F
100
AcDbEntity
  8
1
  6
DOT_CENTER
 62
     7
100
AcDbLine
 10
118.0482413309902
 20
125.4679299491551
 30
0.0
 11
117.3032207321222
 21
125.4679299491551
 31
0.0
  0
LINE
  5
1C1
330
1F
100
AcDbEntity
  8
1
  6
DOT_CENTER
 62
     7
100
AcDbLine
 10
53.54824133098992
 20
125.467929949155
 30
0.0
 11
54.19326219795863
 21
125.4679299491551
 31
0.0
  0
LINE
  5
1C2
330
1F
100
AcDbEntity
  8
0
  6
Continuous
 62
     7
100
AcDbLine
 10
63.49824146504039
 20
83.16792994915505
 30
0.0
 11
63.49824146504039
 21
86.16792994915505
 31
0.0
  0
LINE
  5
1C3
330
1F
100
AcDbEntity
  8
1
  6
DOT_CENTER
 62
     7
100
AcDbLine
 10
61.74824146504028
 20
81.63398801922085
 30
0.0
 11
61.74824146504028
 21
89.03304114824655
 31
0.0
  0
LINE
  5
1C4
330
1F
100
AcDbEntity
  8
1
  6
DOT_CENTER
 62
     7
100
AcDbLine
 10
109.7482414650403
 20
81.77248256380756
 30
0.0
 11
109.7482414650403
 21
89.03304114824655
 31
0.0
  0
LINE
  5
1C5
330
1F
100
AcDbEntity
  8
1
  6
Continuous
 62
     7
100
AcDbLine
 10
43.24824146504039
 20
113.9979299491551
 30
0.0
 11
43.34824146504042
 21
113.9979299491551
 31
0.0
  0
LINE
  5
1C6
330
1F
100
AcDbEntity
  8
0
  6
Continuous
 62
     7
100
AcDbLine
 10
43.24824146504039
 20
112.9979299491551
 30
0.0
 11
43.24824146504039
 21
115.8179299491551
 31
0.0
  0
LINE
  5
1C7
330
1F
100
AcDbEntity
  8
1
  6
Continuous
 62
     7
100
AcDbLine
 10
43.24824146504039
 20
90.83792994915495
 30
0.0
 11
43.34824146504042
 21
90.83792994915495
 31
0.0
  0
LINE
  5
1C8
330
1F
100
AcDbEntity
  8
0
  6
Continuous
 62
     7
100
AcDbLine
 10
43.24824146504039
 20
91.83792994915495
 30
0.0
 11
43.24824146504039
 21
100.6636363161206
 31
0.0
  0
LINE
  5
1C9
330
1F
100
AcDbEntity
  8
0
  6
Continuous
 62
     7
100
AcDbLine
 10
214.0261670944877
 20
135.1679299491552
 30
0.0
 11
205.2482614178042
 21
135.1679299491551
 31
0.0
  0
LINE
  5
1CA
330
1F
100
AcDbEntity
  8
0
  6
Continuous
 62
     7
100
AcDbLine
 10
237.3777226417451
 20
150.8967618207191
 30
0.0
 11
237.3501589061626
 21
150.8006356511258
 31
0.0
  0
LINE
  5
1CB
330
1F
100
AcDbEntity
  8
0
  6
Continuous
 62
     7
100
AcDbLine
 10
235.4702465986434
 20
151.1679299491539
 30
0.0
 11
229.1482611510171
 21
151.1679299491539
 31
0.0
  0
LINE
  5
1CC
330
1F
100
AcDbEntity
  8
0
  6
Continuous
 62
     7
100
AcDbLine
 10
235.8312052784592
 20
151.1679299491536
 30
0.0
 11
235.4702465986434
 21
151.1679299491539
 31
0.0
  0
LINE
  5
1CD
330
1F
100
AcDbEntity
  8
0
  6
Continuous
 62
     7
100
AcDbLine
 10
236.4224728577457
 20
151.099806430342
 30
0.0
 11
236.4085555476496
 21
151.000779623468
 31
0.0
  0
LINE
  5
1CE
330
1F
100
AcDbEntity
  8
0
  6
Continuous
 62
     7
100
AcDbLine
 10
229.1482611510171
 20
151.1679299491539
 30
0.0
 11
210.990003581531
 21
151.1679299491539
 31
0.0
  0
LINE
  5
1CF
330
1F
100
AcDbEntity
  8
0
  6
Continuous
 62
     7
100
AcDbLine
 10
239.9477744188308
 20
149.5302410509837
 30
0.0
 11
239.8834956578623
 21
149.453636606672
 31
0.0
  0
LINE
  5
1D0
330
1F
100
AcDbEntity
  8
0
  6
Continuous
 62
     7
100
AcDbLine
 10
241.2515241589103
 20
148.0822802734458
 30
0.0
 11
241.1686204016547
 21
148.0263609830987
 31
0.0
  0
LINE
  5
1D1
330
1F
100
AcDbEntity
  8
0
  6
Continuous
 62
     7
100
AcDbLine
 10
210.9482611510011
 20
148.667929949154
 30
0.0
 11
218.4482611510264
 21
148.6679299491521
 31
0.0
  0
LINE
  5
1D2
330
1F
100
AcDbEntity
  8
0
  6
Continuous
 62
     7
100
AcDbLine
 10
240.6502749293667
 20
148.8518441936627
 30
0.0
 11
240.5759604468191
 21
148.7849311330268
 31
0.0
  0
LINE
  5
1D3
330
1F
100
AcDbEntity
  8
0
  6
Continuous
 62
     7
100
AcDbLine
 10
241.649940070489
 20
147.1926908619951
 30
0.0
 11
241.7398194751191
 21
147.2365279766741
 31
0.0
  0
LINE
  5
1D4
330
1F
100
AcDbEntity
  8
0
  6
Continuous
 62
     7
100
AcDbLine
 10
242.1056567650909
 20
146.3310489097751
 30
0.0
 11
242.0105511134611
 21
146.3001472103376
 31
0.0
  0
LINE
  5
1D5
330
1F
100
AcDbEntity
  8
0
  6
Continuous
 62
     7
100
AcDbLine
 10
242.4439969401583
 20
144.412226426068
 30
0.0
 11
242.3440578574563
 21
144.4087364763977
 31
0.0
  0
LINE
  5
1D6
330
1F
100
AcDbEntity
  8
0
  6
Continuous
 62
     7
100
AcDbLine
 10
242.2434346468087
 20
145.3661023750523
 30
0.0
 11
242.3419154221102
 21
145.383467192819
 31
0.0
  0
LINE
  5
1D7
330
1F
100
AcDbEntity
  8
0
  6
Continuous
 62
     7
100
AcDbLine
 10
242.3104622290655
 20
143.4466835526036
 30
0.0
 11
242.4099144186024
 21
143.4362307062769
 31
0.0
  0
LINE
  5
1D8
330
1F
100
AcDbEntity
  8
0
  6
Continuous
 62
     7
100
AcDbLine
 10
217.4482611510256
 20
145.5679299491526
 30
0.0
 11
210.9482611510008
 21
145.5679299491533
 31
0.0
  0
LINE
  5
1D9
330
1F
100
AcDbEntity
  8
0
  6
Continuous
 62
     7
100
AcDbLine
 10
225.4046444236624
 20
131.0081221926394
 30
0.0
 11
220.8053461102112
 21
126.7192071296988
 31
0.0
  0
LINE
  5
1DA
330
1F
100
AcDbEntity
  8
0
  6
Continuous
 62
     7
100
AcDbLine
 10
218.0176501634421
 20
120.5678601483067
 30
0.0
 11
229.4892603310461
 21
131.2653096918877
 31
0.0
  0
LINE
  5
1DB
330
1F
100
AcDbEntity
  8
0
  6
Continuous
 62
     7
100
AcDbLine
 10
241.5104389775153
 20
140.6679299491505
 30
0.0
 11
241.4238364371367
 21
140.7179299491506
 31
0.0
  0
LINE
  5
1DC
330
1F
100
AcDbEntity
  8
0
  6
Continuous
 62
     7
100
AcDbLine
 10
238.7345620905248
 20
137.9872967991383
 30
0.0
 11
238.6876149342463
 21
138.0755915584242
 31
0.0
  0
LINE
  5
1DD
330
1F
100
AcDbEntity
  8
0
  6
Continuous
 62
     7
100
AcDbLine
 10
236.903642986748
 20
137.3208967440144
 30
0.0
 11
236.8828518176663
 21
137.4187115040878
 31
0.0
  0
LINE
  5
1DE
330
1F
100
AcDbEntity
  8
0
  6
Continuous
 62
     7
100
AcDbLine
 10
235.4482611527235
 20
137.1292389559161
 30
0.0
 11
235.4482611510198
 21
136.8221678548198
 31
0.0
  0
LINE
  5
1DF
330
1F
100
AcDbEntity
  8
0
  6
Continuous
 62
     7
100
AcDbLine
 10
235.9295808198581
 20
137.2847380023583
 30
0.0
 11
235.9365564672324
 21
137.1849815973324
 31
0.0
  0
LINE
  5
1E0
330
1F
100
AcDbEntity
  8
0
  6
Continuous
 62
     7
100
AcDbLine
 10
237.8082001399708
 20
137.6840508657282
 30
0.0
 11
237.8424021543034
 21
137.5900816036496
 31
0.0
  0
LINE
  5
1E1
330
1F
100
AcDbEntity
  8
0
  6
Continuous
 62
     7
100
AcDbLine
 10
239.5039793918419
 20
138.5857126879636
 30
0.0
 11
239.5627579170709
 21
138.5048109885261
 31
0.0
  0
LINE
  5
1E2
330
1F
100
AcDbEntity
  8
0
  6
Continuous
 62
     7
100
AcDbLine
 10
240.3108697442369
 20
139.1325513467801
 30
0.0
 11
240.2414039071911
 21
139.2044853268141
 31
0.0
  0
LINE
  5
1E3
330
1F
100
AcDbEntity
  8
0
  6
Continuous
 62
     7
100
AcDbLine
 10
240.964336426271
 20
139.8582996218712
 30
0.0
 11
240.8855353509102
 21
139.9198657694037
 31
0.0
  0
LINE
  5
1E4
330
1F
100
AcDbEntity
  8
0
  6
Continuous
 62
     7
100
AcDbLine
 10
235.4482611510198
 20
136.8221678548198
 30
0.0
 11
229.4892603310461
 21
131.2653096918877
 31
0.0
  0
LINE
  5
1E5
330
1F
100
AcDbEntity
  8
0
  6
Continuous
 62
     7
100
AcDbLine
 10
238.2547439882484
 20
150.4713936068849
 30
0.0
 11
238.2954176525558
 21
150.5627481526491
 31
0.0
  0
LINE
  5
1E6
330
1F
100
AcDbEntity
  8
0
  6
Continuous
 62
     7
100
AcDbLine
 10
239.157696000659
 20
150.1042666222449
 30
0.0
 11
239.1047040742342
 21
150.0194618126302
 31
0.0
  0
LINE
  5
1E7
330
1F
100
AcDbEntity
  8
0
  6
Continuous
 62
     7
100
AcDbLine
 10
235.4482611510231
 20
137.2679299491512
 30
0.0
 11
235.4482611527235
 21
137.1292389559161
 31
0.0
  0
LINE
  5
1E8
330
1F
100
AcDbEntity
  8
0
  6
Continuous
 62
     7
100
AcDbLine
 10
214.9482611510252
 20
141.767929949156
 30
0.0
 11
214.9482611510256
 21
136.0277965677142
 31
0.0
  0
LINE
  5
1E9
330
1F
100
AcDbEntity
  8
0
  6
Continuous
 62
     7
100
AcDbLine
 10
218.8982221173512
 20
130.1120154507686
 30
0.0
 11
222.2904495074669
 21
133.2753186676607
 31
0.0
  0
LINE
  5
1EA
330
1F
100
AcDbEntity
  8
0
  6
Continuous
 62
     7
100
AcDbLine
 10
208.8788721386047
 20
130.3679997500047
 30
0.0
 11
214.9482611510256
 21
136.0277965677142
 31
0.0
  0
LINE
  5
1EB
330
1F
100
AcDbEntity
  8
0
  6
Continuous
 62
     7
100
AcDbLine
 10
213.4482611510252
 20
143.267929949156
 30
0.0
 11
210.2560302572539
 21
143.267929949156
 31
0.0
  0
LINE
  5
1EC
330
1F
100
AcDbEntity
  8
0
  6
Continuous
 62
     7
100
AcDbLine
 10
242.2403312349563
 20
142.4744766799528
 30
0.0
 11
242.1433016623288
 21
142.4986688695128
 31
0.0
  0
LINE
  5
1ED
330
1F
100
AcDbEntity
  8
0
  6
Continuous
 62
     7
100
AcDbLine
 10
241.8458297475349
 20
141.5831444545808
 30
0.0
 11
241.938548132992
 21
141.5456837952391
 31
0.0
  0
LINE
  5
1EE
330
1F
100
AcDbEntity
  8
1
  6
DOT_CENTER
 62
     7
100
AcDbLine
 10
218.0682611510227
 20
125.4679299491551
 30
0.0
 11
208.8282611510232
 21
125.4679299491551
 31
0.0
  0
LINE
  5
1EF
330
1F
100
AcDbEntity
  8
1
  6
DOT_CENTER
 62
     7
100
AcDbLine
 10
213.4482611510227
 20
130.0879299491548
 30
0.0
 11
213.4482611510227
 21
120.8479299491554
 31
0.0
  0
LINE
  5
1F0
330
1F
100
AcDbEntity
  8
1
  6
Continuous
 62
     7
100
AcDbLine
 10
251.4781159335802
 20
125.4679299491551
 30
0.0
 11
251.4781159335802
 21
122.5679299491551
 31
0.0
  0
LINE
  5
1F1
330
1F
100
AcDbEntity
  8
0
  6
Continuous
 62
     7
100
AcDbLine
 10
243.448261151024
 20
147.1679299491504
 30
0.0
 11
243.448261151024
 21
148.6679299491501
 31
0.0
  0
LINE
  5
1F2
330
1F
100
AcDbEntity
  8
0
  6
Continuous
 62
     7
100
AcDbLine
 10
242.6133246604853
 20
149.1679299491502
 30
0.0
 11
242.948261151024
 21
149.1679299491504
 31
0.0
  0
LINE
  5
1F3
330
1F
100
AcDbEntity
  8
0
  6
Continuous
 62
     7
100
AcDbLine
 10
242.6133246604853
 20
149.1679299491502
 30
0.0
 11
240.347240636591
 21
149.1679299491504
 31
0.0
  0
LINE
  5
1F4
330
1F
100
AcDbEntity
  8
0
  6
Continuous
 62
     7
100
AcDbLine
 10
242.6133246604851
 20
146.6679299491502
 30
0.0
 11
242.948261151024
 21
146.6679299491504
 31
0.0
  0
LINE
  5
1F5
330
1F
100
AcDbEntity
  8
0
  6
Continuous
 62
     7
100
AcDbLine
 10
242.6133246604851
 20
146.6679299491502
 30
0.0
 11
241.8794352273496
 21
146.6679299491504
 31
0.0
  0
LINE
  5
1F6
330
1F
100
AcDbEntity
  8
0
  6
Continuous
 62
     7
100
AcDbLine
 10
205.2480136509868
 20
135.1679299491551
 30
0.0
 11
214.0261668277061
 21
135.1679299491552
 31
0.0
  0
ARC
  5
1F7
102
{ACAD_REACTORS
330
311
102
}
330
1F
100
AcDbEntity
  8
1
  6
Continuous
 62
     7
100
AcDbCircle
 10
282.6763006887427
 20
10.84673060906323
 30
0.0
 40
0.3333333333333172
100
AcDbArc
 50
299.9816393688334
 51
119.9816393688323
  0
ARC
  5
1F8
102
{ACAD_REACTORS
330
311
102
}
330
1F
100
AcDbEntity
  8
1
  6
Continuous
 62
     7
100
AcDbCircle
 10
282.6763006887427
 20
12.5
 30
0.0
 40
0.3333333333333695
100
AcDbArc
 50
270.0
 51
90.0
  0
ARC
  5
1F9
102
{ACAD_REACTORS
330
311
102
}
330
1F
100
AcDbEntity
  8
1
  6
Continuous
 62
     7
100
AcDbCircle
 10
282.6763006887427
 20
14.15326939093666
 30
0.0
 40
0.3333333333333471
100
AcDbArc
 50
240.0183606311583
 51
60.01836063115638
  0
ARC
  5
1FA
102
{ACAD_REACTORS
330
312
102
}
330
1F
100
AcDbEntity
  8
1
  6
Continuous
 62
     7
100
AcDbCircle
 10
274.6763006887427
 20
10.84673060906323
 30
0.0
 40
0.3333333333333712
100
AcDbArc
 50
180.0
 51
0.0
  0
ARC
  5
1FB
102
{ACAD_REACTORS
330
312
102
}
330
1F
100
AcDbEntity
  8
1
  6
Continuous
 62
     7
100
AcDbCircle
 10
274.6763006887427
 20
14.15326939093666
 30
0.0
 40
0.3333333333332007
100
AcDbArc
 50
0.0
 51
180.0
  0
ARC
  5
1FC
102
{ACAD_REACTORS
330
313
102
}
330
1F
100
AcDbEntity
  8
1
  6
Continuous
 62
     7
100
AcDbCircle
 10
278.3429673554093
 20
8.7313459936787
 30
0.0
 40
0.3333333333333709
100
AcDbArc
 50
240.0183606311493
 51
60.01836063115783
  0
ARC
  5
1FD
102
{ACAD_REACTORS
330
313
102
}
330
1F
100
AcDbEntity
  8
1
  6
Continuous
 62
     7
100
AcDbCircle
 10
276.0096340220759
 20
14.92250016016737
 30
0.0
 40
0.3333333333334281
100
AcDbArc
 50
0.0
 51
180.0
  0
ARC
  5
1FE
102
{ACAD_REACTORS
330
314
102
}
330
1F
100
AcDbEntity
  8
1
  6
Continuous
 62
     7
100
AcDbCircle
 10
280.078001142934
 20
15.73121731203457
 30
0.0
 40
0.2649662124753149
100
AcDbArc
 50
0.0
 51
149.9999999999685
  0
ARC
  5
1FF
102
{ACAD_REACTORS
330
314
102
}
330
1F
100
AcDbEntity
  8
1
  6
Continuous
 62
     7
100
AcDbCircle
 10
280.0096340220761
 20
9.3082690706018
 30
0.0
 40
0.3333333333334281
100
AcDbArc
 50
180.0
 51
0.0
  0
ARC
  5
200
102
{ACAD_REACTORS
330
314
102
}
330
1F
100
AcDbEntity
  8
1
  6
Continuous
 62
     7
100
AcDbCircle
 10
277.3429673554093
 20
10.84758507263291
 30
0.0
 40
0.3333333333334281
100
AcDbArc
 50
180.0
 51
0.0
  0
ARC
  5
201
102
{ACAD_REACTORS
330
314
102
}
330
1F
100
AcDbEntity
  8
1
  6
Continuous
 62
     7
100
AcDbCircle
 10
277.2746002345513
 20
15.73121731203457
 30
0.0
 40
0.2649662124752854
100
AcDbArc
 50
30.00000000001921
 51
180.0
  0
ARC
  5
202
330
1F
100
AcDbEntity
  8
0
  6
Continuous
 62
     7
100
AcDbCircle
 10
213.4482611510227
 20
100.667929949155
 30
0.0
 40
16.15000000000012
100
AcDbArc
 50
157.7522161578152
 51
180.0
  0
ARC
  5
203
330
1F
100
AcDbEntity
  8
0
  6
Continuous
 62
     7
100
AcDbCircle
 10
189.4482611510227
 20
86.16792994915505
 30
0.0
 40
1.0
100
AcDbArc
 50
90.0
 51
180.0
  0
ARC
  5
204
330
1F
100
AcDbEntity
  8
0
  6
Continuous
 62
     7
100
AcDbCircle
 10
237.4482611510227
 20
86.16792994915505
 30
0.0
 40
1.0
100
AcDbArc
 50
0.0
 51
90.0
  0
ARC
  5
205
330
1F
100
AcDbEntity
  8
0
  6
Continuous
 62
     7
100
AcDbCircle
 10
213.4482611510227
 20
100.667929949155
 30
0.0
 40
16.14999999999981
100
AcDbArc
 50
0.0
 51
22.24778384218526
  0
ARC
  5
206
330
1F
100
AcDbEntity
  8
0
  6
Continuous
 62
     7
100
AcDbCircle
 10
213.4482611510227
 20
100.667929949155
 30
0.0
 40
16.14999999999984
100
AcDbArc
 50
22.24778384218526
 51
157.7522161578152
  0
ARC
  5
207
330
1F
100
AcDbEntity
  8
0
  6
Continuous
 62
     7
100
AcDbCircle
 10
92.99824133099025
 20
140.2179299491529
 30
0.0
 40
0.3000000000000114
100
AcDbArc
 50
270.0
 51
0.0
  0
ARC
  5
208
330
1F
100
AcDbEntity
  8
0
  6
Continuous
 62
     7
100
AcDbCircle
 10
87.39824133099006
 20
144.6024432223706
 30
0.0
 40
0.20000000000021
100
AcDbArc
 50
60.01836063081187
 51
180.0
  0
ARC
  5
209
330
1F
100
AcDbEntity
  8
0
  6
Continuous
 62
     7
100
AcDbCircle
 10
88.19824133141168
 20
144.1451594811154
 30
0.0
 40
0.1999999999999013
100
AcDbArc
 50
240.018360773191
 51
60.01836077317497
  0
ARC
  5
20A
330
1F
100
AcDbEntity
  8
0
  6
Continuous
 62
     7
100
AcDbCircle
 10
86.5982413309901
 20
145.0597269633828
 30
0.0
 40
0.1999999999999318
100
AcDbArc
 50
0.0
 51
150.0000001034132
  0
ARC
  5
20B
330
1F
100
AcDbEntity
  8
0
  6
Continuous
 62
     7
100
AcDbCircle
 10
80.69835241125412
 20
143.2929299491498
 30
0.0
 40
0.1001110802621307
100
AcDbArc
 50
119.7519359337777
 51
240.2480640649229
  0
ARC
  5
20C
330
1F
100
AcDbEntity
  8
0
  6
Continuous
 62
     7
100
AcDbCircle
 10
85.59824133098027
 20
141.1831625588591
 30
0.0
 40
0.1999999999999297
100
AcDbArc
 50
240.0183606348452
 51
60.01836063481697
  0
ARC
  5
20D
330
1F
100
AcDbEntity
  8
0
  6
Continuous
 62
     7
100
AcDbCircle
 10
84.39824133099006
 20
142.0994374358487
 30
0.0
 40
0.3999999999999773
100
AcDbArc
 50
180.0000000000448
 51
240.0183606310581
  0
ARC
  5
20E
330
1F
100
AcDbEntity
  8
0
  6
Continuous
 62
     7
100
AcDbCircle
 10
83.39824133099006
 20
142.4406666213877
 30
0.0
 40
0.2000000000002728
100
AcDbArc
 50
179.9999999999104
 51
0.0
  0
ARC
  5
20F
330
1F
100
AcDbEntity
  8
0
  6
Continuous
 62
     7
100
AcDbCircle
 10
84.99824133099008
 20
142.4406666213877
 30
0.0
 40
0.2000000000003297
100
AcDbArc
 50
180.0
 51
0.0
  0
ARC
  5
210
330
1F
100
AcDbEntity
  8
0
  6
Continuous
 62
     7
100
AcDbCircle
 10
85.79824133099004
 20
143.4740863173276
 30
0.0
 40
0.0999999999999679
100
AcDbArc
 50
210.0000000000746
 51
330.0000000001294
  0
ARC
  5
211
330
1F
100
AcDbEntity
  8
0
  6
Continuous
 62
     7
100
AcDbCircle
 10
85.79824133099396
 20
146.0929299491488
 30
0.0
 40
0.2000000000009663
100
AcDbArc
 50
60.24751292524287
 51
119.7519359350573
  0
ARC
  5
212
330
1F
100
AcDbEntity
  8
0
  6
Continuous
 62
     7
100
AcDbCircle
 10
84.19824133099007
 20
144.6067317384539
 30
0.0
 40
0.1999999999999886
100
AcDbArc
 50
0.0
 51
179.9999999995685
  0
ARC
  5
213
330
1F
100
AcDbEntity
  8
0
  6
Continuous
 62
     7
100
AcDbCircle
 10
83.39824133099006
 20
144.1451932769155
 30
0.0
 40
0.2000000000000455
100
AcDbArc
 50
0.0
 51
180.0
  0
ARC
  5
214
330
1F
100
AcDbEntity
  8
0
  6
Continuous
 62
     7
100
AcDbCircle
 10
84.99824133098889
 20
145.0597269633825
 30
0.0
 40
0.1999999999987975
100
AcDbArc
 50
29.99999999986795
 51
179.9999999999186
  0
ARC
  5
215
330
1F
100
AcDbEntity
  8
0
  6
Continuous
 62
     7
100
AcDbCircle
 10
88.19824133056528
 20
142.4406666211438
 30
0.0
 40
0.2000000000000263
100
AcDbArc
 50
299.9816395084714
 51
119.9816395084692
  0
ARC
  5
216
330
1F
100
AcDbEntity
  8
0
  6
Continuous
 62
     7
100
AcDbCircle
 10
87.39824133099006
 20
141.9834166759336
 30
0.0
 40
0.1999999999999886
100
AcDbArc
 50
180.000000000114
 51
299.9816393662334
  0
ARC
  5
217
330
1F
100
AcDbEntity
  8
0
  6
Continuous
 62
     7
100
AcDbCircle
 10
86.5982413309901
 20
141.5261329349113
 30
0.0
 40
0.2000000000003297
100
AcDbArc
 50
180.0000000006595
 51
0.00000000063509
  0
ARC
  5
218
330
1F
100
AcDbEntity
  8
0
  6
Continuous
 62
     7
100
AcDbCircle
 10
90.89824133099006
 20
143.2929299491498
 30
0.0
 40
0.1000000000017227
100
AcDbArc
 50
299.7524870765083
 51
60.24751292493396
  0
ARC
  5
219
330
1F
100
AcDbEntity
  8
0
  6
Continuous
 62
     7
100
AcDbCircle
 10
88.19824133099007
 20
143.2929299491521
 30
0.0
 40
0.1999999999997897
100
AcDbArc
 50
270.0
 51
90.0
  0
ARC
  5
21A
330
1F
100
AcDbEntity
  8
0
  6
Continuous
 62
     7
100
AcDbCircle
 10
85.79824133099396
 20
140.4929299491522
 30
0.0
 40
0.200000000001949
100
AcDbArc
 50
240.2480640645912
 51
299.7524870752378
  0
ARC
  5
21B
330
1F
100
AcDbEntity
  8
0
  6
Continuous
 62
     7
100
AcDbCircle
 10
78.59824133097499
 20
140.2179299491682
 30
0.0
 40
0.3000000000154159
100
AcDbArc
 50
180.000000002942
 51
270.0000000029312
  0
ARC
  5
21C
330
1F
100
AcDbEntity
  8
0
  6
Continuous
 62
     7
100
AcDbCircle
 10
48.79824133098992
 20
150.6679299491536
 30
0.0
 40
0.5
100
AcDbArc
 50
90.0
 51
180.0
  0
ARC
  5
21D
330
1F
100
AcDbEntity
  8
0
  6
Continuous
 62
     7
100
AcDbCircle
 10
48.79824133099015
 20
119.2679299491548
 30
0.0
 40
0.5
100
AcDbArc
 50
180.0
 51
270.0
  0
ARC
  5
21E
330
1F
100
AcDbEntity
  8
0
  6
Continuous
 62
     7
100
AcDbCircle
 10
122.7982413309902
 20
150.6679299491536
 30
0.0
 40
0.4999999999997016
100
AcDbArc
 50
0.0
 51
90.0
  0
ARC
  5
21F
330
1F
100
AcDbEntity
  8
0
  6
Continuous
 62
     7
100
AcDbCircle
 10
122.7982413309899
 20
119.2679299491548
 30
0.0
 40
0.5
100
AcDbArc
 50
270.0
 51
0.0
  0
ARC
  5
220
330
1F
100
AcDbEntity
  8
0
  6
Continuous
 62
     7
100
AcDbCircle
 10
44.24824146504039
 20
115.8179299491551
 30
0.0
 40
1.0
100
AcDbArc
 50
90.0
 51
180.0
  0
ARC
  5
221
330
1F
100
AcDbEntity
  8
0
  6
Continuous
 62
     7
100
AcDbCircle
 10
127.2482414650405
 20
115.8179299491551
 30
0.0
 40
1.000000000000014
100
AcDbArc
 50
0.0
 51
90.0
  0
ARC
  5
222
330
1F
100
AcDbEntity
  8
0
  6
Continuous
 62
     7
100
AcDbCircle
 10
116.4982414650405
 20
86.16792994915505
 30
0.0
 40
1.0
100
AcDbArc
 50
0.0
 51
90.0
  0
ARC
  5
223
330
1F
100
AcDbEntity
  8
0
  6
Continuous
 62
     7
100
AcDbCircle
 10
54.99824146504039
 20
86.16792994915505
 30
0.0
 40
1.0
100
AcDbArc
 50
90.0
 51
180.0
  0
ARC
  5
224
330
1F
100
AcDbEntity
  8
0
  6
Continuous
 62
     7
100
AcDbCircle
 10
235.4482611509181
 20
144.167929949144
 30
0.0
 40
6.900000000000164
100
AcDbArc
 50
273.7809280833109
 51
274.0000000008782
  0
ARC
  5
225
330
1F
100
AcDbEntity
  8
0
  6
Continuous
 62
     7
100
AcDbCircle
 10
235.4482611510318
 20
144.1679299491515
 30
0.0
 40
6.90000000000029
100
AcDbArc
 50
269.9999999999278
 51
273.7809280823649
  0
ARC
  5
226
330
1F
100
AcDbEntity
  8
0
  6
Continuous
 62
     7
100
AcDbCircle
 10
235.4482611510222
 20
144.1679299491521
 30
0.0
 40
6.900000000000256
100
AcDbArc
 50
65.99999999997193
 51
73.99999999997362
  0
ARC
  5
227
330
1F
100
AcDbEntity
  8
0
  6
Continuous
 62
     7
100
AcDbCircle
 10
235.448261151026
 20
144.1679299491509
 30
0.0
 40
6.999999999999987
100
AcDbArc
 50
73.99999999999913
 51
82.00000000000627
  0
ARC
  5
228
330
1F
100
AcDbEntity
  8
0
  6
Continuous
 62
     7
100
AcDbCircle
 10
217.4482611510247
 20
138.467929949155
 30
0.0
 40
7.099999999997617
100
AcDbArc
 50
313.0000000000009
 51
89.99999999999265
  0
ARC
  5
229
330
1F
100
AcDbEntity
  8
0
  6
Continuous
 62
     7
100
AcDbCircle
 10
235.448261151026
 20
144.1679299491509
 30
0.0
 40
6.900000000000132
100
AcDbArc
 50
82.00000000000733
 51
83.42611475027024
  0
ARC
  5
22A
330
1F
100
AcDbEntity
  8
0
  6
Continuous
 62
     7
100
AcDbCircle
 10
235.4482611510244
 20
144.1679299491512
 30
0.0
 40
7.000000000000074
100
AcDbArc
 50
41.99999999999417
 51
49.99999999999449
  0
ARC
  5
22B
330
1F
100
AcDbEntity
  8
0
  6
Continuous
 62
     7
100
AcDbCircle
 10
235.4482611510244
 20
144.1679299491512
 30
0.0
 40
6.90000000000005
100
AcDbArc
 50
33.99999999999329
 51
41.9999999999931
  0
ARC
  5
22C
330
1F
100
AcDbEntity
  8
0
  6
Continuous
 62
     7
100
AcDbCircle
 10
235.4482611510244
 20
144.1679299491512
 30
0.0
 40
7.000000000000195
100
AcDbArc
 50
25.99999999999347
 51
33.99999999999306
  0
ARC
  5
22D
330
1F
100
AcDbEntity
  8
0
  6
Continuous
 62
     7
100
AcDbCircle
 10
210.948261151001
 20
147.1179299491536
 30
0.0
 40
1.550000000000409
100
AcDbArc
 50
89.99999999999581
 51
269.9999999999927
  0
ARC
  5
22E
330
1F
100
AcDbEntity
  8
0
  6
Continuous
 62
     7
100
AcDbCircle
 10
210.990003581531
 20
147.1679299491539
 30
0.0
 40
4.0
100
AcDbArc
 50
90.0
 51
203.5781784785142
  0
ARC
  5
22F
330
1F
100
AcDbEntity
  8
0
  6
Continuous
 62
     7
100
AcDbCircle
 10
235.4482611510244
 20
144.1679299491512
 30
0.0
 40
7.000000000000148
100
AcDbArc
 50
353.9999999999941
 51
1.99999999999428
  0
ARC
  5
230
330
1F
100
AcDbEntity
  8
0
  6
Continuous
 62
     7
100
AcDbCircle
 10
235.4482611510244
 20
144.1679299491512
 30
0.0
 40
7.000000000000198
100
AcDbArc
 50
9.999999999994
 51
17.99999999999326
  0
ARC
  5
231
330
1F
100
AcDbEntity
  8
0
  6
Continuous
 62
     7
100
AcDbCircle
 10
235.4482611510244
 20
144.1679299491512
 30
0.0
 40
6.900000000000109
100
AcDbArc
 50
1.99999999999384
 51
9.99999999999408
  0
ARC
  5
232
330
1F
100
AcDbEntity
  8
0
  6
Continuous
 62
     7
100
AcDbCircle
 10
235.4482611510244
 20
144.1679299491512
 30
0.0
 40
6.899999999999904
100
AcDbArc
 50
17.99999999999393
 51
25.99999999999328
  0
ARC
  5
233
330
1F
100
AcDbEntity
  8
0
  6
Continuous
 62
     7
100
AcDbCircle
 10
211.4482611510256
 20
147.3679299491564
 30
0.0
 40
4.500000000000069
100
AcDbArc
 50
203.5781784785139
 51
227.4649206658568
  0
ARC
  5
234
330
1F
100
AcDbEntity
  8
0
  6
Continuous
 62
     7
100
AcDbCircle
 10
213.4482611510227
 20
125.4679299491551
 30
0.0
 40
6.700000000000357
100
AcDbArc
 50
132.9999999999887
 51
313.0000000000044
  0
ARC
  5
235
330
1F
100
AcDbEntity
  8
0
  6
Continuous
 62
     7
100
AcDbCircle
 10
219.2392212973825
 20
129.7463385999591
 30
0.0
 40
0.4999999999999799
100
AcDbArc
 50
133.0000000000107
 51
216.4572915170762
  0
ARC
  5
236
330
1F
100
AcDbEntity
  8
0
  6
Continuous
 62
     7
100
AcDbCircle
 10
213.4482611510227
 20
125.4679299491551
 30
0.0
 40
6.700000000000141
100
AcDbArc
 50
12.97800248570837
 51
36.45729151707734
  0
ARC
  5
237
330
1F
100
AcDbEntity
  8
0
  6
Continuous
 62
     7
100
AcDbCircle
 10
220.4643469301801
 20
127.0848839805086
 30
0.0
 40
0.5000000000002132
100
AcDbArc
 50
192.9780024857211
 51
312.9999999999694
  0
ARC
  5
238
330
1F
100
AcDbEntity
  8
0
  6
Continuous
 62
     7
100
AcDbCircle
 10
235.4482611510244
 20
144.1679299491512
 30
0.0
 40
6.900000000000012
100
AcDbArc
 50
329.9999999999944
 51
337.9999999999944
  0
ARC
  5
239
330
1F
100
AcDbEntity
  8
0
  6
Continuous
 62
     7
100
AcDbCircle
 10
235.4482611510257
 20
144.167929949153
 30
0.0
 40
6.999999999999972
100
AcDbArc
 50
321.999999999977
 51
329.9999999999763
  0
ARC
  5
23A
330
1F
100
AcDbEntity
  8
0
  6
Continuous
 62
     7
100
AcDbCircle
 10
235.4482611510244
 20
144.1679299491512
 30
0.0
 40
6.999999999999946
100
AcDbArc
 50
273.9999999999928
 51
281.9999999999939
  0
ARC
  5
23B
330
1F
100
AcDbEntity
  8
0
  6
Continuous
 62
     7
100
AcDbCircle
 10
235.4482611510244
 20
144.1679299491512
 30
0.0
 40
6.899999999999982
100
AcDbArc
 50
281.9999999999945
 51
289.9999999999938
  0
ARC
  5
23C
330
1F
100
AcDbEntity
  8
0
  6
Continuous
 62
     7
100
AcDbCircle
 10
235.4482611510244
 20
144.1679299491512
 30
0.0
 40
6.999999999999979
100
AcDbArc
 50
289.9999999999939
 51
297.9999999999924
  0
ARC
  5
23D
330
1F
100
AcDbEntity
  8
0
  6
Continuous
 62
     7
100
AcDbCircle
 10
235.4482611510244
 20
144.1679299491512
 30
0.0
 40
6.899999999999989
100
AcDbArc
 50
297.9999999999931
 51
305.999999999994
  0
ARC
  5
23E
330
1F
100
AcDbEntity
  8
0
  6
Continuous
 62
     7
100
AcDbCircle
 10
235.4482611510244
 20
144.1679299491512
 30
0.0
 40
6.999999999999901
100
AcDbArc
 50
305.9999999999924
 51
313.9999999999941
  0
ARC
  5
23F
330
1F
100
AcDbEntity
  8
0
  6
Continuous
 62
     7
100
AcDbCircle
 10
235.4482611510244
 20
144.1679299491512
 30
0.0
 40
6.900000000000015
100
AcDbArc
 50
313.9999999999955
 51
321.9999999999942
  0
ARC
  5
240
330
1F
100
AcDbEntity
  8
0
  6
Continuous
 62
     7
100
AcDbCircle
 10
235.4482611510244
 20
144.1679299491512
 30
0.0
 40
7.00000000000006
100
AcDbArc
 50
57.99999999997951
 51
65.99999999999307
  0
ARC
  5
241
330
1F
100
AcDbEntity
  8
0
  6
Continuous
 62
     7
100
AcDbCircle
 10
235.4482611510268
 20
144.1679299491495
 30
0.0
 40
6.900000000000152
100
AcDbArc
 50
50.0000000000185
 51
58.00000000001796
  0
ARC
  5
242
330
1F
100
AcDbEntity
  8
0
  6
Continuous
 62
     7
100
AcDbCircle
 10
235.4482611510244
 20
144.1679299491512
 30
0.0
 40
7.000000000000327
100
AcDbArc
 50
337.999999999995
 51
345.9999999999941
  0
ARC
  5
243
330
1F
100
AcDbEntity
  8
0
  6
Continuous
 62
     7
100
AcDbCircle
 10
235.4482611510244
 20
144.1679299491512
 30
0.0
 40
6.900000000000184
100
AcDbArc
 50
345.9999999999947
 51
353.9999999999935
  0
ARC
  5
244
330
1F
100
AcDbEntity
  8
0
  6
Continuous
 62
     7
100
AcDbCircle
 10
210.4341989326364
 20
146.2626345962143
 30
0.0
 40
3.00000000000002
100
AcDbArc
 50
227.4649206658575
 51
266.5952254413291
  0
ARC
  5
245
330
1F
100
AcDbEntity
  8
0
  6
Continuous
 62
     7
100
AcDbCircle
 10
213.4482611510252
 20
141.767929949156
 30
0.0
 40
1.5
100
AcDbArc
 50
0.0
 51
90.0
  0
ARC
  5
246
330
1F
100
AcDbEntity
  8
0
  6
Continuous
 62
     7
100
AcDbCircle
 10
218.448261151026
 20
138.4679299491535
 30
0.0
 40
10.19999999999821
100
AcDbArc
 50
313.0000000000011
 51
89.99999999999777
  0
ARC
  5
247
330
1F
100
AcDbEntity
  8
1
  6
DASHED
 62
     7
100
AcDbCircle
 10
213.4482611510227
 20
125.4679299491551
 30
0.0
 40
38.02985478255767
100
AcDbArc
 50
350.8496906002916
 51
0.0
  0
ARC
  5
248
330
1F
100
AcDbEntity
  8
1
  6
DASHED
 62
     7
100
AcDbCircle
 10
213.4482611510227
 20
125.4679299491551
 30
0.0
 40
38.02985478255749
100
AcDbArc
 50
0.0
 51
58.00000000000004
  0
ARC
  5
249
330
1F
100
AcDbEntity
  8
0
  6
Continuous
 62
     7
100
AcDbCircle
 10
242.948261151024
 20
148.6679299491504
 30
0.0
 40
0.5
100
AcDbArc
 50
359.9999999999674
 51
90.0
  0
ARC
  5
24A
330
1F
100
AcDbEntity
  8
0
  6
Continuous
 62
     7
100
AcDbCircle
 10
242.948261151024
 20
147.1679299491504
 30
0.0
 40
0.5
100
AcDbArc
 50
270.0
 51
0.0
  0
CIRCLE
  5
24B
330
1F
100
AcDbEntity
  8
0
  6
Continuous
 62
     7
100
AcDbCircle
 10
213.4482611510227
 20
100.667929949155
 30
0.0
 40
9.59999999999988
  0
CIRCLE
  5
24C
330
1F
100
AcDbEntity
  8
0
  6
Continuous
 62
     7
100
AcDbCircle
 10
213.4482611510227
 20
100.667929949155
 30
0.0
 40
13.30590797763779
  0
CIRCLE
  5
24D
330
1F
100
AcDbEntity
  8
0
  6
Continuous
 62
     7
100
AcDbCircle
 10
213.4482611510227
 20
100.667929949155
 30
0.0
 40
13.5769158440668
  0
CIRCLE
  5
24E
330
1F
100
AcDbEntity
  8
0
  6
Continuous
 62
     7
100
AcDbCircle
 10
213.4482611510227
 20
125.4679299491551
 30
0.0
 40
2.499999999999699
  0
CIRCLE
  5
24F
330
1F
100
AcDbEntity
  8
0
  6
Continuous
 62
     7
100
AcDbCircle
 10
213.4482611510227
 20
125.4679299491551
 30
0.0
 40
4.199999999999392
  0
SPLINE
  5
250
330
1F
100
AcDbEntity
  8
0
  6
Continuous
 62
     7
100
AcDbSpline
210
0.0
220
0.0
230
1.0
 70
     8
 71
     3
 72
    15
 73
    11
 74
     9
 42
0.000000001
 43
0.0000000001
 44
0.00000001
 40
0.0
 40
0.0
 40
0.0
 40
0.0
 40
0.0382591290470285
 40
0.0765182580941006
 40
0.1898049146810891
 40
0.2943621401116245
 40
0.4596586212850743
 40
0.6184034111453387
 40
0.8098002745910026
 40
1.000009826829499
 40
1.000009826829499
 40
1.000009826829499
 40
1.000009826829499
 10
197.2982611510226
 20
100.667929949155
 30
0.0
 10
197.3110140727216
 20
100.6678743227301
 30
0.0
 10
197.3365199161828
 20
100.6677630843456
 30
0.0
 10
197.399787620988
 20
100.6674875252367
 30
0.0
 10
197.4851544853869
 20
100.6671165735017
 30
0.0
 10
197.6128667424411
 20
100.6665635517677
 30
0.0
 10
197.7557315799762
 20
100.6659475633895
 30
0.0
 10
197.9275427117132
 20
100.6652107831858
 30
0.0
 10
198.1076581419165
 20
100.6644425474633
 30
0.0
 10
198.2348591425371
 20
100.6639044975331
 30
0.0
 10
198.2982617594477
 20
100.6636363169369
 30
0.0
 11
197.2982611510226
 21
100.667929949155
 31
0.0
 11
197.3365199163017
 21
100.6677631116064
 31
0.0
 11
197.3747786824467
 21
100.6675964727327
 31
0.0
 11
197.4880642695495
 21
100.6671042172085
 31
0.0
 11
197.5926205147144
 21
100.6666514625457
 31
0.0
 11
197.7579154595616
 21
100.6659387940743
 31
0.0
 11
197.9166587895878
 21
100.6652580004064
 31
0.0
 11
198.108053913473
 21
100.6644419796517
 31
0.0
 11
198.2982617594477
 21
100.6636363169369
 31
0.0
  0
SPLINE
  5
251
330
1F
100
AcDbEntity
  8
0
  6
Continuous
 62
     7
100
AcDbSpline
210
0.0
220
0.0
230
1.0
 70
     8
 71
     3
 72
    15
 73
    11
 74
     9
 42
0.000000001
 43
0.0000000001
 44
0.00000001
 40
0.0
 40
0.0
 40
0.0
 40
0.0
 40
0.0382591290469411
 40
0.0765182580939847
 40
0.1898002351226077
 40
0.2943621401114264
 40
0.4598401827100017
 40
0.6184034111449008
 40
0.8098002003380463
 40
1.000009826832958
 40
1.000009826832958
 40
1.000009826832958
 40
1.000009826832958
 10
229.5982611510225
 20
100.667929949155
 30
0.0
 10
229.5855082293235
 20
100.6678743227303
 30
0.0
 10
229.5600023858624
 20
100.6677630843461
 30
0.0
 10
229.4967362408951
 20
100.6674875320309
 30
0.0
 10
229.4113693764964
 20
100.6671165802692
 30
0.0
 10
229.2835965995348
 20
100.6665632964266
 30
0.0
 10
229.1407302021537
 20
100.6659473031174
 30
0.0
 10
228.9689190951582
 20
100.6652105251791
 30
0.0
 10
228.7888641848781
 20
100.66444254762
 30
0.0
 10
228.6616631842586
 20
100.6639044971103
 30
0.0
 10
228.5982605425974
 20
100.6636363161206
 30
0.0
 11
229.5982611510225
 21
100.667929949155
 31
0.0
 11
229.5600023857435
 21
100.6677631116068
 31
0.0
 11
229.5217436195985
 21
100.6675964727332
 31
0.0
 11
229.40846271201
 21
100.667104237506
 31
0.0
 11
229.3039017873309
 21
100.6666514625455
 31
0.0
 11
229.138425282737
 21
100.6659380133895
 31
0.0
 11
228.9798635124577
 21
100.6652580004089
 31
0.0
 11
228.7884684628248
 21
100.6644419798674
 31
0.0
 11
228.5982605425974
 21
100.6636363161206
 31
0.0
  0
SPLINE
  5
252
330
1F
100
AcDbEntity
  8
0
  6
Continuous
 62
     7
100
AcDbSpline
210
0.0
220
0.0
230
1.0
 70
     8
 71
     3
 72
     9
 73
     5
 74
     3
 42
0.000000001
 43
0.0000000001
 44
0.00000001
 40
0.0
 40
0.0
 40
0.0
 40
0.0
 40
0.6105709141639866
 40
1.245926453180431
 40
1.245926453180431
 40
1.245926453180431
 40
1.245926453180431
 10
109.6863212432925
 20
140.6679299491521
 30
0.0
 10
109.8333909551689
 20
140.5269961967848
 30
0.0
 10
110.1335003255249
 20
140.23940784785
 30
0.0
 10
110.4637758381889
 20
139.9870093068418
 30
0.0
 10
110.6321986081901
 20
139.8582996218725
 30
0.0
 11
109.6863212432925
 21
140.6679299491521
 31
0.0
 11
110.134774864913
 21
140.2535796252319
 31
0.0
 11
110.6321986081901
 21
139.8582996218725
 31
0.0
  0
SPLINE
  5
253
330
1F
100
AcDbEntity
  8
0
  6
Continuous
 62
     7
100
AcDbSpline
210
0.0
220
0.0
230
1.0
 70
     8
 71
     3
 72
     9
 73
     5
 74
     3
 42
0.000000001
 43
0.0000000001
 44
0.00000001
 40
0.0
 40
0.0
 40
0.0
 40
0.0
 40
0.5556047744253335
 40
1.133702377970404
 40
1.133702377970404
 40
1.133702377970404
 40
1.133702377970404
 10
109.1054073892286
 20
141.5831444545823
 30
0.0
 10
109.2154744528117
 20
141.4339308943563
 30
0.0
 10
109.4400644961459
 20
141.1294630983977
 30
0.0
 10
109.7025000684725
 20
140.856910158464
 30
0.0
 10
109.8363212432923
 20
140.7179299491524
 30
0.0
 11
109.1054073892286
 21
141.5831444545823
 31
0.0
 11
109.4446982635804
 21
141.1431690365973
 31
0.0
 11
109.8363212432923
 21
140.7179299491524
 31
0.0
  0
SPLINE
  5
254
330
1F
100
AcDbEntity
  8
0
  6
Continuous
 62
     7
100
AcDbSpline
210
0.0
220
0.0
230
1.0
 70
     8
 71
     3
 72
     9
 73
     5
 74
     3
 42
0.000000001
 43
0.0000000001
 44
0.00000001
 40
0.0
 40
0.0
 40
0.0
 40
0.0
 40
0.6353555390164952
 40
1.245926453180536
 40
1.245926453180536
 40
1.245926453180536
 40
1.245926453180536
 10
60.96428405379083
 20
139.8582996218725
 30
0.0
 10
61.132706823792
 20
139.9870093068418
 30
0.0
 10
61.46298233645602
 20
140.23940784785
 30
0.0
 10
61.76309170681212
 20
140.5269961967848
 30
0.0
 10
61.91016141868857
 20
140.6679299491521
 30
0.0
 11
60.96428405379083
 21
139.8582996218725
 31
0.0
 11
61.46170779706799
 21
140.2535796252319
 31
0.0
 11
61.91016141868857
 21
140.6679299491521
 31
0.0
  0
SPLINE
  5
255
330
1F
100
AcDbEntity
  8
0
  6
Continuous
 62
     7
100
AcDbSpline
210
0.0
220
0.0
230
1.0
 70
     8
 71
     3
 72
     9
 73
     5
 74
     3
 42
0.000000001
 43
0.0000000001
 44
0.00000001
 40
0.0
 40
0.0
 40
0.0
 40
0.0
 40
0.5780976035452999
 40
1.133702377970735
 40
1.133702377970735
 40
1.133702377970735
 40
1.133702377970735
 10
61.76016141868848
 20
140.7179299491521
 30
0.0
 10
61.89398259350833
 20
140.8569101584638
 30
0.0
 10
62.15641816583489
 20
141.1294630983976
 30
0.0
 10
62.38100820916922
 20
141.4339308943564
 30
0.0
 10
62.49107527275237
 20
141.5831444545823
 30
0.0
 11
61.76016141868848
 21
140.7179299491521
 31
0.0
 11
62.15178439840048
 21
141.1431690365973
 31
0.0
 11
62.49107527275237
 21
141.5831444545823
 31
0.0
  0
SPLINE
  5
256
330
1F
100
AcDbEntity
  8
0
  6
Continuous
 62
     7
100
AcDbSpline
210
0.0
220
0.0
230
1.0
 70
     8
 71
     3
 72
     9
 73
     5
 74
     3
 42
0.000000001
 43
0.0000000001
 44
0.00000001
 40
0.0
 40
0.0
 40
0.0
 40
0.0
 40
0.5020003611218514
 40
0.9928532183194824
 40
0.9928532183194824
 40
0.9928532183194824
 40
0.9928532183194824
 10
63.00631174299969
 20
142.4986688695143
 30
0.0
 10
63.06873336959532
 20
142.6542937751961
 30
0.0
 10
63.19219045880346
 20
142.9620877602359
 30
0.0
 10
63.26155130634625
 20
143.2863652552181
 30
0.0
 10
63.29584233760954
 20
143.4466835526053
 30
0.0
 11
63.00631174299969
 21
142.4986688695143
 31
0.0
 11
63.17974715850485
 21
142.969757523365
 31
0.0
 11
63.29584233760954
 21
143.4466835526053
 31
0.0
  0
SPLINE
  5
257
330
1F
100
AcDbEntity
  8
0
  6
Continuous
 62
     7
100
AcDbSpline
210
0.0
220
0.0
230
1.0
 70
     8
 71
     3
 72
     9
 73
     5
 74
     3
 42
0.000000001
 43
0.0000000001
 44
0.00000001
 40
0.0
 40
0.0
 40
0.0
 40
0.0
 40
0.5427464079853849
 40
1.06714844840209
 40
1.06714844840209
 40
1.06714844840209
 40
1.06714844840209
 10
62.65166822715918
 20
141.5456837952408
 30
0.0
 10
62.75221870323877
 20
141.696440218778
 30
0.0
 10
62.94992111755784
 20
141.9928576369907
 30
0.0
 10
63.10041732066239
 20
142.3157873920604
 30
0.0
 10
63.17437189262734
 20
142.4744766799546
 30
0.0
 11
62.65166822715918
 21
141.5456837952408
 31
0.0
 11
62.94110886723265
 21
142.0048109887347
 31
0.0
 11
63.17437189262734
 21
142.4744766799546
 31
0.0
  0
SPLINE
  5
258
330
1F
100
AcDbEntity
  8
0
  6
Continuous
 62
     7
100
AcDbSpline
210
0.0
220
0.0
230
1.0
 70
     8
 71
     3
 72
     9
 73
     5
 74
     3
 42
0.000000001
 43
0.0000000001
 44
0.00000001
 40
0.0
 40
0.0
 40
0.0
 40
0.0
 40
0.5092757292344018
 40
1.03367776895584
 40
1.03367776895584
 40
1.03367776895584
 40
1.03367776895584
 10
63.35032086602286
 20
145.3834671928206
 30
0.0
 10
63.29582498810932
 20
145.5445624347436
 30
0.0
 10
63.18521459828295
 20
145.8715376996964
 30
0.0
 10
63.02326740185721
 20
146.1763914845875
 30
0.0
 10
62.94110886833715
 20
146.3310489097767
 30
0.0
 11
63.35032086602286
 21
145.3834671928206
 31
0.0
 11
63.17437189150049
 21
145.8613832181876
 31
0.0
 11
62.94110886833715
 21
146.3310489097767
 31
0.0
  0
SPLINE
  5
259
330
1F
100
AcDbEntity
  8
0
  6
Continuous
 62
     7
100
AcDbSpline
210
0.0
220
0.0
230
1.0
 70
     8
 71
     3
 72
     9
 73
     5
 74
     3
 42
0.000000001
 43
0.0000000001
 44
0.00000001
 40
0.0
 40
0.0
 40
0.0
 40
0.0
 40
0.4885929532093202
 40
0.9795576264628365
 40
0.9795576264628365
 40
0.9795576264628365
 40
0.9795576264628365
 10
108.0693514201849
 20
144.4122264260696
 30
0.0
 10
108.0644676501411
 20
144.2490674317703
 30
0.0
 10
108.0546764232632
 20
143.9219574400065
 30
0.0
 10
108.1037752276387
 20
143.5984007504041
 30
0.0
 10
108.1283840791696
 20
143.4362307062784
 30
0.0
 11
108.0693514201849
 21
144.4122264260696
 31
0.0
 11
108.0693514213456
 21
143.923633472258
 31
0.0
 11
108.1283840791696
 21
143.4362307062784
 31
0.0
  0
SPLINE
  5
25A
330
1F
100
AcDbEntity
  8
0
  6
Continuous
 62
     7
100
AcDbSpline
210
0.0
220
0.0
230
1.0
 70
     8
 71
     3
 72
     9
 73
     5
 74
     3
 42
0.000000001
 43
0.0000000001
 44
0.00000001
 40
0.0
 40
0.0
 40
0.0
 40
0.0
 40
0.524402040416686
 40
1.067148448401985
 40
1.067148448401985
 40
1.067148448401985
 40
1.067148448401985
 10
108.4221107693536
 20
142.4744766799543
 30
0.0
 10
108.4960653413186
 20
142.3157873920601
 30
0.0
 10
108.6465615444231
 20
141.9928576369905
 30
0.0
 10
108.8442639587423
 20
141.6964402187779
 30
0.0
 10
108.9448144348219
 20
141.5456837952407
 30
0.0
 11
108.4221107693536
 21
142.4744766799543
 31
0.0
 11
108.6553737947484
 21
142.0048109887345
 31
0.0
 11
108.9448144348219
 21
141.5456837952407
 31
0.0
  0
SPLINE
  5
25B
330
1F
100
AcDbEntity
  8
0
  6
Continuous
 62
     7
100
AcDbSpline
210
0.0
220
0.0
230
1.0
 70
     8
 71
     3
 72
     9
 73
     5
 74
     3
 42
0.000000001
 43
0.0000000001
 44
0.00000001
 40
0.0
 40
0.0
 40
0.0
 40
0.0
 40
0.4908528571977407
 40
0.9928532183195589
 40
0.9928532183195589
 40
0.9928532183195589
 40
0.9928532183195589
 10
108.3006403243713
 20
143.4466835526053
 30
0.0
 10
108.3349313556347
 20
143.2863652552181
 30
0.0
 10
108.4042922031775
 20
142.9620877602359
 30
0.0
 10
108.5277492923857
 20
142.6542937751961
 30
0.0
 10
108.5901709189814
 20
142.4986688695143
 30
0.0
 11
108.3006403243713
 21
143.4466835526053
 31
0.0
 11
108.4167355034761
 21
142.9697575233649
 31
0.0
 11
108.5901709189814
 21
142.4986688695143
 31
0.0
  0
SPLINE
  5
25C
330
1F
100
AcDbEntity
  8
0
  6
Continuous
 62
     7
100
AcDbSpline
210
0.0
220
0.0
230
1.0
 70
     8
 71
     3
 72
     9
 73
     5
 74
     3
 42
0.000000001
 43
0.0000000001
 44
0.00000001
 40
0.0
 40
0.0
 40
0.0
 40
0.0
 40
0.4908528568189582
 40
0.9748037492114916
 40
0.9748037492114916
 40
0.9748037492114916
 40
0.9748037492114916
 10
108.4167355023488
 20
145.3661023750538
 30
0.0
 10
108.3732471034678
 20
145.2079969591186
 30
0.0
 10
108.2868818228898
 20
144.8940092699115
 30
0.0
 10
108.2571911870015
 20
144.5697287339147
 30
0.0
 10
108.2424509890866
 20
144.4087364763994
 30
0.0
 11
108.4167355023488
 21
145.3661023750538
 31
0.0
 11
108.3006403255099
 21
144.8891763456298
 31
0.0
 11
108.2424509890866
 21
144.4087364763994
 31
0.0
  0
SPLINE
  5
25D
330
1F
100
AcDbEntity
  8
0
  6
Continuous
 62
     7
100
AcDbSpline
210
0.0
220
0.0
230
1.0
 70
     8
 71
     3
 72
     9
 73
     5
 74
     3
 42
0.000000001
 43
0.0000000001
 44
0.00000001
 40
0.0
 40
0.0
 40
0.0
 40
0.0
 40
0.4839508923925478
 40
0.9748037492115045
 40
0.9748037492115045
 40
0.9748037492115045
 40
0.9748037492115045
 10
63.35403167289445
 20
144.4087364763994
 30
0.0
 10
63.33929147497949
 20
144.5697287339147
 30
0.0
 10
63.30960083909111
 20
144.8940092699115
 30
0.0
 10
63.22323555851314
 20
145.2079969591186
 30
0.0
 10
63.17974715963214
 20
145.3661023750538
 30
0.0
 11
63.35403167289445
 21
144.4087364763994
 31
0.0
 11
63.29584233647108
 21
144.8891763456298
 31
0.0
 11
63.17974715963214
 21
145.3661023750538
 31
0.0
  0
SPLINE
  5
25E
330
1F
100
AcDbEntity
  8
0
  6
Continuous
 62
     7
100
AcDbSpline
210
0.0
220
0.0
230
1.0
 70
     8
 71
     3
 72
     9
 73
     5
 74
     3
 42
0.000000001
 43
0.0000000001
 44
0.00000001
 40
0.0
 40
0.0
 40
0.0
 40
0.0
 40
0.4909646732534813
 40
0.9795576264628298
 40
0.9795576264628298
 40
0.9795576264628298
 40
0.9795576264628298
 10
63.46809858281137
 20
143.4362307062784
 30
0.0
 10
63.49270743434225
 20
143.5984007504041
 30
0.0
 10
63.5418062387177
 20
143.9219574400065
 30
0.0
 10
63.53201501183988
 20
144.2490674317702
 30
0.0
 10
63.52713124179599
 20
144.4122264260696
 30
0.0
 11
63.46809858281137
 21
143.4362307062784
 31
0.0
 11
63.52713124063536
 21
143.923633472258
 31
0.0
 11
63.52713124179599
 21
144.4122264260696
 31
0.0
  0
SPLINE
  5
25F
330
1F
100
AcDbEntity
  8
0
  6
Continuous
 62
     7
100
AcDbSpline
210
0.0
220
0.0
230
1.0
 70
     8
 71
     3
 72
     9
 73
     5
 74
     3
 42
0.000000001
 43
0.0000000001
 44
0.00000001
 40
0.0
 40
0.0
 40
0.0
 40
0.0
 40
0.70880145603816
 40
1.393721038269843
 40
1.393721038269843
 40
1.393721038269843
 40
1.393721038269843
 10
112.3929356541227
 20
149.5302410509853
 30
0.0
 10
112.1815619237486
 20
149.4243816444084
 30
0.0
 10
111.7659363550898
 20
149.2162295684526
 30
0.0
 10
111.3704995195126
 20
148.9719104947176
 30
0.0
 10
111.1761690775311
 20
148.8518441936643
 30
0.0
 11
112.3929356541227
 21
149.5302410509853
 31
0.0
 11
111.7640361033334
 21
149.2033085510406
 31
0.0
 11
111.1761690775311
 21
148.8518441936643
 31
0.0
  0
SPLINE
  5
260
330
1F
100
AcDbEntity
  8
0
  6
Continuous
 62
     7
100
AcDbSpline
210
0.0
220
0.0
230
1.0
 70
     8
 71
     3
 72
     9
 73
     5
 74
     3
 42
0.000000001
 43
0.0000000001
 44
0.00000001
 40
0.0
 40
0.0
 40
0.0
 40
0.0
 40
0.790201713734669
 40
1.562735005242459
 40
1.562735005242459
 40
1.562735005242459
 40
1.562735005242459
 10
115.2549015255415
 20
150.5627481526509
 30
0.0
 10
115.0004369221983
 20
150.4943616580008
 30
0.0
 10
114.497197392516
 20
150.3591177293025
 30
0.0
 10
114.0048045270926
 20
150.1885742709916
 30
0.0
 10
113.7613916163625
 20
150.1042666222475
 30
0.0
 11
115.2549015255415
 21
150.5627481526509
 31
0.0
 11
114.4942810476603
 21
150.348563098573
 31
0.0
 11
113.7613916163625
 21
150.1042666222475
 31
0.0
  0
SPLINE
  5
261
330
1F
100
AcDbEntity
  8
0
  6
Continuous
 62
     7
100
AcDbSpline
210
0.0
220
0.0
230
1.0
 70
     8
 71
     3
 72
     9
 73
     5
 74
     3
 42
0.000000001
 43
0.0000000001
 44
0.00000001
 40
0.0
 40
0.0
 40
0.0
 40
0.0
 40
0.8071893688659632
 40
1.601389564761094
 40
1.601389564761094
 40
1.601389564761094
 40
1.601389564761094
 10
116.8921377005935
 20
150.8006356511271
 30
0.0
 10
116.6270771882841
 20
150.7539284166791
 30
0.0
 10
116.1012214824695
 20
150.6612655341433
 30
0.0
 10
115.5825717899809
 20
150.5343410863759
 30
0.0
 10
115.3253503786522
 20
150.4713936068866
 30
0.0
 11
116.8921377005935
 21
150.8006356511271
 31
0.0
 11
116.0987870120649
 21
150.6518090319543
 31
0.0
 11
115.3253503786522
 21
150.4713936068866
 31
0.0
  0
SPLINE
  5
262
330
1F
100
AcDbEntity
  8
0
  6
Continuous
 62
     7
100
AcDbSpline
210
0.0
220
0.0
230
1.0
 70
     8
 71
     3
 72
     9
 73
     5
 74
     3
 42
0.000000001
 43
0.0000000001
 44
0.00000001
 40
0.0
 40
0.0
 40
0.0
 40
0.0
 40
0.0904574483981503
 40
0.1836900492863158
 40
0.1836900492863158
 40
0.1836900492863158
 40
0.1836900492863158
 10
99.87432302581857
 20
148.7849311330284
 30
0.0
 10
99.84641391670284
 20
148.7963491595789
 30
0.0
 10
99.78973946492366
 20
148.8195354887923
 30
0.0
 10
99.73237815230738
 20
148.8409667055112
 30
0.0
 10
99.7032641907328
 20
148.851844193664
 30
0.0
 11
99.87432302581857
 21
148.7849311330284
 31
0.0
 11
99.79042912891481
 21
148.818759583356
 31
0.0
 11
99.7032641907328
 21
148.851844193664
 31
0.0
  0
SPLINE
  5
263
330
1F
100
AcDbEntity
  8
0
  6
Continuous
 62
     7
100
AcDbSpline
210
0.0
220
0.0
230
1.0
 70
     8
 71
     3
 72
    17
 73
    13
 74
    11
 42
0.000000001
 43
0.0000000001
 44
0.00000001
 40
0.0
 40
0.0
 40
0.0
 40
0.0
 40
0.045916744513655
 40
0.0813938340738738
 40
0.1244226667353691
 40
0.1572406006996225
 40
0.1896041902953551
 40
0.2276384228128394
 40
0.2493834429025063
 40
0.2747610421660218
 40
0.2999585808342627
 40
0.3253527272219376
 40
0.3253527272219376
 40
0.3253527272219376
 40
0.3253527272219376
 10
99.7032641907328
 20
148.851844193664
 30
0.0
 10
99.71226120792889
 20
148.8642543428306
 30
0.0
 10
99.72820966483465
 20
148.8862530706581
 30
0.0
 10
99.74724111894906
 20
148.9232422952992
 30
0.0
 10
99.75872970900285
 20
148.9588849295935
 30
0.0
 10
99.76086824625278
 20
148.9952850470237
 30
0.0
 10
99.75312987418778
 20
149.029334317297
 30
0.0
 10
99.73676873937256
 20
149.0560165774642
 30
0.0
 10
99.71693834274893
 20
149.0764215560658
 30
0.0
 10
99.69781813396328
 20
149.0912251532325
 30
0.0
 10
99.67614118067684
 20
149.1044219237875
 30
0.0
 10
99.66084696168394
 20
149.1115503116731
 30
0.0
 10
99.65317013127537
 20
149.1151283506069
 30
0.0
 11
99.7032641907328
 21
148.851844193664
 31
0.0
 11
99.7291418299788
 21
148.8897743322994
 31
0.0
 11
99.74528829128457
 21
148.9213641369741
 31
0.0
 11
99.75774671823399
 21
148.9625499133667
 31
0.0
 11
99.75931188707199
 21
148.9953305040622
 31
0.0
 11
99.752028660818
 21
149.026863925059
 31
0.0
 11
99.73253802931436
 21
149.0595245779748
 31
0.0
 11
99.71746804615596
 21
149.0752007235841
 31
0.0
 11
99.69750369011217
 21
149.0908674743492
 31
0.0
 11
99.67598433575361
 21
149.1039759984463
 31
0.0
 11
99.65317013127537
 21
149.1151283506069
 31
0.0
  0
SPLINE
  5
264
330
1F
100
AcDbEntity
  8
0
  6
Continuous
 62
     7
100
AcDbSpline
210
0.0
220
0.0
230
1.0
 70
     8
 71
     3
 72
     9
 73
     5
 74
     3
 42
0.000000001
 43
0.0000000001
 44
0.00000001
 40
0.0
 40
0.0
 40
0.0
 40
0.0
 40
0.7421540889408846
 40
1.463275664540659
 40
1.463275664540659
 40
1.463275664540659
 40
1.463275664540659
 10
113.8531763253187
 20
150.0194618126319
 30
0.0
 10
113.6213823014369
 20
149.9327202244741
 30
0.0
 10
113.1643632621072
 20
149.7616952706293
 30
0.0
 10
112.7221823327149
 20
149.5553341176677
 30
0.0
 10
112.5042697339679
 20
149.4536366066733
 30
0.0
 11
113.8531763253187
 21
150.0194618126319
 31
0.0
 11
113.1616111896846
 21
149.7501472098049
 31
0.0
 11
112.5042697339679
 21
149.4536366066733
 31
0.0
  0
SPLINE
  5
265
330
1F
100
AcDbEntity
  8
0
  6
Continuous
 62
     7
100
AcDbSpline
210
0.0
220
0.0
230
1.0
 70
     8
 71
     3
 72
     9
 73
     5
 74
     3
 42
0.000000001
 43
0.0000000001
 44
0.00000001
 40
0.0
 40
0.0
 40
0.0
 40
0.0
 40
0.8377186042995798
 40
1.66731254894589
 40
1.66731254894589
 40
1.66731254894589
 40
1.66731254894589
 10
118.4989370699245
 20
151.0998064303438
 30
0.0
 10
118.2207783707128
 20
151.0744156595354
 30
0.0
 10
117.6671587118642
 20
151.0238803518289
 30
0.0
 10
117.1177577832075
 20
150.9389967944256
 30
0.0
 10
116.8443959101199
 20
150.896761820721
 30
0.0
 11
118.4989370699245
 21
151.0998064303438
 31
0.0
 11
117.6655259596467
 21
151.0149631536336
 31
0.0
 11
116.8443959101199
 21
150.896761820721
 31
0.0
  0
SPLINE
  5
266
330
1F
100
AcDbEntity
  8
0
  6
Continuous
 62
     7
100
AcDbSpline
210
0.0
220
0.0
230
1.0
 70
     8
 71
     3
 72
     9
 73
     5
 74
     3
 42
0.000000001
 43
0.0000000001
 44
0.00000001
 40
0.0
 40
0.0
 40
0.0
 40
0.0
 40
0.0026101886392131
 40
0.0052203862275624
 40
0.0052203862275624
 40
0.0052203862275624
 40
0.0052203862275624
 10
118.5178375809221
 20
151.0221619853299
 30
0.0
 10
118.5187050664721
 20
151.0222289050063
 30
0.0
 10
118.5204400420829
 20
151.0223627246476
 30
0.0
 10
118.5221750512682
 20
151.0224961082785
 30
0.0
 10
118.5230425581153
 20
151.0225627902376
 30
0.0
 11
118.5178375809221
 21
151.0221619853299
 31
0.0
 11
118.5204400467345
 21
151.0223626253864
 31
0.0
 11
118.5230425581153
 21
151.0225627902376
 31
0.0
  0
SPLINE
  5
267
330
1F
100
AcDbEntity
  8
0
  6
Continuous
 62
     7
100
AcDbSpline
210
0.0
220
0.0
230
1.0
 70
     8
 71
     3
 72
    17
 73
    13
 74
    11
 42
0.000000001
 43
0.0000000001
 44
0.00000001
 40
0.0
 40
0.0
 40
0.0
 40
0.0
 40
0.0663708641202253
 40
0.1380952941721921
 40
0.2105441414704292
 40
0.2764216384302362
 40
0.3335341150334462
 40
0.4040278549806539
 40
0.4434093983578606
 40
0.4786180478971118
 40
0.5177469775927549
 40
0.553415867523927
 40
0.553415867523927
 40
0.553415867523927
 40
0.553415867523927
 10
51.88157095870594
 20
136.8221678548246
 30
0.0
 10
51.85943723244193
 20
136.8227291330659
 30
0.0
 10
51.81338444356386
 20
136.823896977946
 30
0.0
 10
51.74385756744964
 20
136.8352029138066
 30
0.0
 10
51.67678001241953
 20
136.8563678562776
 30
0.0
 10
51.6190677638722
 20
136.8875823198474
 30
0.0
 10
51.56947766744229
 20
136.9294739874378
 30
0.0
 10
51.536396623253
 20
136.9751918461932
 30
0.0
 10
51.51682260715381
 20
137.0195858038529
 30
0.0
 10
51.50632644876784
 20
137.056093469832
 30
0.0
 10
51.50033819955047
 20
137.0924007576702
 30
0.0
 10
51.49965445479712
 20
137.1173441807738
 30
0.0
 10
51.49932840363636
 20
137.1292389691924
 30
0.0
 11
51.88157095870594
 21
136.8221678548246
 31
0.0
 11
51.81527379938525
 21
136.8252948601454
 31
0.0
 11
51.74448518560246
 21
136.8368432861757
 31
0.0
 11
51.67559387414997
 21
136.8592669981243
 31
0.0
 11
51.61785545717834
 21
136.8909863926054
 31
0.0
 11
51.57439490000861
 21
136.9280406109851
 31
0.0
 11
51.53309104057735
 21
136.9851664266492
 31
0.0
 11
51.51714570395972
 21
137.0211754849708
 31
0.0
 11
51.50731968913016
 21
137.0549852248908
 31
0.0
 11
51.50107699082261
 21
137.0936129611543
 31
0.0
 11
51.49932840363636
 21
137.1292389691924
 31
0.0
  0
SPLINE
  5
268
330
1F
100
AcDbEntity
  8
0
  6
Continuous
 62
     7
100
AcDbSpline
210
0.0
220
0.0
230
1.0
 70
     8
 71
     3
 72
     9
 73
     5
 74
     3
 42
0.000000001
 43
0.0000000001
 44
0.00000001
 40
0.0
 40
0.0
 40
0.0
 40
0.0
 40
0.0026101979878382
 40
0.0052203862279412
 40
0.0052203862279412
 40
0.0052203862279412
 40
0.0052203862279412
 10
53.07344010386555
 20
151.0225627902376
 30
0.0
 10
53.07430761084547
 20
151.0224961082685
 30
0.0
 10
53.07604262003096
 20
151.0223627246381
 30
0.0
 10
53.0777775956418
 20
151.0222289049967
 30
0.0
 10
53.07864508105917
 20
151.0221619853304
 30
0.0
 11
53.07344010386555
 21
151.0225627902376
 31
0.0
 11
53.07604261564471
 21
151.0223626253563
 31
0.0
 11
53.07864508105917
 21
151.0221619853304
 31
0.0
  0
SPLINE
  5
269
330
1F
100
AcDbEntity
  8
0
  6
Continuous
 62
     7
100
AcDbSpline
210
0.0
220
0.0
230
1.0
 70
     8
 71
     3
 72
     9
 73
     5
 74
     3
 42
0.000000001
 43
0.0000000001
 44
0.00000001
 40
0.0
 40
0.0
 40
0.0
 40
0.0
 40
0.6508643296665557
 40
1.277143361971723
 40
1.277143361971723
 40
1.277143361971723
 40
1.277143361971723
 10
111.3048855370421
 20
148.7849311330286
 30
0.0
 10
111.1238901751755
 20
148.6650091716806
 30
0.0
 10
110.7687362562168
 20
148.429695081643
 30
0.0
 10
110.4397130804499
 20
148.1590691510919
 30
0.0
 10
110.2783683836551
 20
148.0263609831004
 30
0.0
 11
111.3048855370421
 21
148.7849311330286
 31
0.0
 11
110.768686075308
 21
148.4159941284925
 31
0.0
 11
110.2783683836551
 21
148.0263609831004
 31
0.0
  0
SPLINE
  5
26A
330
1F
100
AcDbEntity
  8
0
  6
Continuous
 62
     7
100
AcDbSpline
210
0.0
220
0.0
230
1.0
 70
     8
 71
     3
 72
    11
 73
     7
 74
     5
 42
0.000000001
 43
0.0000000001
 44
0.00000001
 40
0.0
 40
0.0
 40
0.0
 40
0.0
 40
0.0522035262985558
 40
0.0968867963308
 40
0.1481554215471881
 40
0.190888135422166
 40
0.190888135422166
 40
0.190888135422166
 40
0.190888135422166
 10
99.72372138291729
 20
148.6679299491614
 30
0.0
 10
99.73808790563038
 20
148.6777523156913
 30
0.0
 10
99.76475135211885
 20
148.6959820849655
 30
0.0
 10
99.80431279397123
 20
148.7255556192049
 30
0.0
 10
99.84045290605867
 20
148.7544206837805
 30
0.0
 10
99.8637377937154
 20
148.7753958725722
 30
0.0
 10
99.87432302581857
 20
148.7849311330284
 30
0.0
 11
99.72372138291729
 21
148.6679299491614
 31
0.0
 11
99.76659099100178
 21
148.6977192905171
 31
0.0
 11
99.80242044315679
 21
148.7244184479623
 31
0.0
 11
99.84231703879568
 21
148.7566167964428
 31
0.0
 11
99.87432302581857
 21
148.7849311330284
 31
0.0
  0
SPLINE
  5
26B
330
1F
100
AcDbEntity
  8
0
  6
Continuous
 62
     7
100
AcDbSpline
210
0.0
220
0.0
230
1.0
 70
     8
 71
     3
 72
     9
 73
     5
 74
     3
 42
0.000000001
 43
0.0000000001
 44
0.00000001
 40
0.0
 40
0.0
 40
0.0
 40
0.0
 40
0.5349928886640233
 40
1.090597662203393
 40
1.090597662203393
 40
1.090597662203393
 40
1.090597662203393
 10
62.77638104762775
 20
146.3001472103392
 30
0.0
 10
62.68466375906608
 20
146.453367336705
 30
0.0
 10
62.49769553665784
 20
146.765710751462
 30
0.0
 10
62.26853181994107
 20
147.0485821084736
 30
0.0
 10
62.15178439942935
 20
147.192690861997
 30
0.0
 11
62.77638104762775
 21
146.3001472103392
 31
0.0
 11
62.49107527169094
 21
146.7527154434744
 31
0.0
 11
62.15178439942935
 21
147.192690861997
 31
0.0
  0
SPLINE
  5
26C
330
1F
100
AcDbEntity
  8
0
  6
Continuous
 62
     7
100
AcDbSpline
210
0.0
220
0.0
230
1.0
 70
     8
 71
     3
 72
    25
 73
    21
 74
    19
 42
0.000000001
 43
0.0000000001
 44
0.00000001
 40
0.0
 40
0.0
 40
0.0
 40
0.0
 40
0.0570060496346251
 40
0.1296956712001013
 40
0.2025202858337906
 40
0.2801967057735163
 40
0.3494175478455122
 40
0.4327050248203181
 40
0.5084215487937144
 40
0.5866223817056659
 40
0.6678600103288743
 40
0.7408723004105615
 40
0.8420184165944963
 40
0.9304187916476977
 40
1.032539664971086
 40
1.121000769630266
 40
1.209675005663781
 40
1.311715538577781
 40
1.408106641695145
 40
1.50176098294464
 40
1.50176098294464
 40
1.50176098294464
 40
1.50176098294464
 10
73.57539462554297
 20
147.1679299491521
 30
0.0
 10
73.58798736464165
 20
147.1536858061967
 30
0.0
 10
73.61663738669166
 20
147.1212786686621
 30
0.0
 10
73.66676211130803
 20
147.0758557654792
 30
0.0
 10
73.72520273995185
 20
147.029765167829
 30
0.0
 10
73.78566159292481
 20
146.9883260256057
 30
0.0
 10
73.85118437313662
 20
146.9483555564511
 30
0.0
 10
73.91803659146905
 20
146.9119749407151
 30
0.0
 10
73.98914858612056
 20
146.8773600341896
 30
0.0
 10
74.06096708559144
 20
146.8459038638524
 30
0.0
 10
74.13310402690136
 20
146.8175676854657
 30
0.0
 10
74.2133954617844
 20
146.7892299160889
 30
0.0
 10
74.29699509724075
 20
146.763231832529
 30
0.0
 10
74.39091464696926
 20
146.7380309888286
 30
0.0
 10
74.48162312125231
 20
146.7174127193847
 30
0.0
 10
74.57313589322237
 20
146.7002751002135
 30
0.0
 10
74.66517890254387
 20
146.6864130106521
 30
0.0
 10
74.76033420169342
 20
146.6759893200924
 30
0.0
 10
74.85750669225024
 20
146.6692083280838
 30
0.0
 10
74.9208598103627
 20
146.6683519603939
 30
0.0
 10
74.95208020926708
 20
146.6679299491521
 30
0.0
 11
73.57539462554297
 21
147.1679299491521
 31
0.0
 11
73.61383941787074
 21
147.125838524438
 31
0.0
 11
73.66724930287387
 21
147.0765316707605
 31
0.0
 11
73.72440168827886
 21
147.0313982128834
 31
0.0
 11
73.78837812574318
 21
146.9873454995782
 31
0.0
 11
73.84744008708395
 21
146.9512455044255
 31
0.0
 11
73.92055396963758
 21
146.9113561079483
 31
0.0
 11
73.98861306370368
 21
146.8781755158915
 31
0.0
 11
74.06022845095964
 21
146.8467652221412
 31
0.0
 11
74.13582981352083
 21
146.817033315629
 31
0.0
 11
74.20467390582155
 21
146.7927169538997
 31
0.0
 11
74.30124800241806
 21
146.7626506825017
 31
0.0
 11
74.38662497175636
 21
146.7397290896489
 31
0.0
 11
74.48620462790457
 21
146.7170891940011
 31
0.0
 11
74.57315413004847
 21
146.7008057311944
 31
0.0
 11
74.66084359163342
 21
146.6876270150035
 31
0.0
 11
74.76227246422275
 21
146.6764711007825
 31
0.0
 11
74.85845008953825
 21
146.6700594908251
 31
0.0
 11
74.95208020926708
 21
146.6679299491521
 31
0.0
  0
SPLINE
  5
26D
330
1F
100
AcDbEntity
  8
0
  6
Continuous
 62
     7
100
AcDbSpline
210
0.0
220
0.0
230
1.0
 70
     8
 71
     3
 72
     9
 73
     5
 74
     3
 42
0.000000001
 43
0.0000000001
 44
0.00000001
 40
0.0
 40
0.0
 40
0.0
 40
0.0
 40
0.0161635733305971
 40
0.0323454911667638
 40
0.0323454911667638
 40
0.0323454911667638
 40
0.0323454911667638
 10
98.02108803643728
 20
147.1679299491521
 30
0.0
 10
98.02454694600917
 20
147.1720609312025
 30
0.0
 10
98.03146870608754
 20
147.180327570815
 30
0.0
 10
98.03842139886127
 20
147.1885682113587
 30
0.0
 10
98.04189972448768
 20
147.192690861997
 30
0.0
 11
98.02108803643728
 21
147.1679299491521
 31
0.0
 11
98.03147249721218
 21
147.1803163964891
 31
0.0
 11
98.04189972448768
 21
147.192690861997
 31
0.0
  0
SPLINE
  5
26E
330
1F
100
AcDbEntity
  8
0
  6
Continuous
 62
     7
100
AcDbSpline
210
0.0
220
0.0
230
1.0
 70
     8
 71
     3
 72
     9
 73
     5
 74
     3
 42
0.000000001
 43
0.0000000001
 44
0.00000001
 40
0.0
 40
0.0
 40
0.0
 40
0.0
 40
0.5556047735393019
 40
1.090597662203447
 40
1.090597662203447
 40
1.090597662203447
 40
1.090597662203447
 10
109.4446982625516
 20
147.192690861997
 30
0.0
 10
109.3279508420399
 20
147.0485821084737
 30
0.0
 10
109.098787125323
 20
146.7657107514621
 30
0.0
 10
108.9118189029148
 20
146.453367336705
 30
0.0
 10
108.8201016143531
 20
146.3001472103392
 30
0.0
 11
109.4446982625516
 21
147.192690861997
 31
0.0
 11
109.10540739029
 21
146.7527154434745
 31
0.0
 11
108.8201016143531
 21
146.3001472103392
 31
0.0
  0
SPLINE
  5
26F
330
1F
100
AcDbEntity
  8
0
  6
Continuous
 62
     7
100
AcDbSpline
210
0.0
220
0.0
230
1.0
 70
     8
 71
     3
 72
     9
 73
     5
 74
     3
 42
0.000000001
 43
0.0000000001
 44
0.00000001
 40
0.0
 40
0.0
 40
0.0
 40
0.0
 40
0.6105709131690982
 40
1.197046743818335
 40
1.197046743818335
 40
1.197046743818335
 40
1.197046743818335
 10
110.1347748639503
 20
148.0822802734475
 30
0.0
 10
109.9823292206872
 20
147.9471197973118
 30
0.0
 10
109.683453941048
 20
147.6821326956571
 30
0.0
 10
109.4187234537675
 20
147.3830562065678
 30
0.0
 10
109.2890225671785
 20
147.2365279766758
 30
0.0
 11
110.1347748639503
 21
148.0822802734475
 31
0.0
 11
109.6863212442983
 21
147.667929948817
 31
0.0
 11
109.2890225671785
 21
147.2365279766758
 31
0.0
  0
SPLINE
  5
270
330
1F
100
AcDbEntity
  8
0
  6
Continuous
 62
     7
100
AcDbSpline
210
0.0
220
0.0
230
1.0
 70
     8
 71
     3
 72
    19
 73
    15
 74
    13
 42
0.000000001
 43
0.0000000001
 44
0.00000001
 40
0.0
 40
0.0
 40
0.0
 40
0.0
 40
0.0676514074569785
 40
0.1293211238732498
 40
0.1962091165388655
 40
0.2799355366246599
 40
0.3601557887006118
 40
0.4322337405392181
 40
0.5822626136909573
 40
0.7404936152116738
 40
0.929295017776717
 40
1.120195450173215
 40
1.31500248697967
 40
1.501549842076451
 40
1.501549842076451
 40
1.501549842076451
 40
1.501549842076451
 10
98.02108803643728
 20
147.1679299491521
 30
0.0
 10
98.00606842779095
 20
147.1510864656023
 30
0.0
 10
97.97735722056044
 20
147.1188888008163
 30
0.0
 10
97.92859338856086
 20
147.0751510004461
 30
0.0
 10
97.87316212705193
 20
147.0311254643136
 30
0.0
 10
97.80973899779187
 20
146.9874371409009
 30
0.0
 10
97.74239020313478
 20
146.9467010724991
 30
0.0
 10
97.65370748887923
 20
146.8987760817315
 30
0.0
 10
97.53845501033182
 20
146.8456051466627
 30
0.0
 10
97.38313610002305
 20
146.7875490042082
 30
0.0
 10
97.2107639718903
 20
146.7373930839635
 30
0.0
 10
97.02313134092142
 20
146.6984516334434
 30
0.0
 10
96.83374649700238
 20
146.6730006323846
 30
0.0
 10
96.70659918129154
 20
146.669595589611
 30
0.0
 10
96.64440245271305
 20
146.6679299491521
 30
0.0
 11
98.02108803643728
 21
147.1679299491521
 31
0.0
 11
97.97509082457279
 21
147.1183217852261
 31
0.0
 11
97.9295178722237
 21
147.0767734917843
 31
0.0
 11
97.87715383900802
 21
147.0351560535171
 31
0.0
 11
97.80832280139748
 21
146.9874863409671
 31
0.0
 11
97.73972932182859
 21
146.9458903876567
 31
0.0
 11
97.67634638655
 21
146.9115707923102
 31
0.0
 11
97.54025060281828
 21
146.848431261312
 31
0.0
 11
97.39211428038806
 21
146.7928193935228
 31
0.0
 11
97.21085805575163
 21
146.7399785871191
 31
0.0
 11
97.02399636539946
 21
146.7009185791217
 31
0.0
 11
96.83076769855553
 21
146.6761705841739
 31
0.0
 11
96.64440245271305
 21
146.6679299491521
 31
0.0
  0
SPLINE
  5
271
330
1F
100
AcDbEntity
  8
0
  6
Continuous
 62
     7
100
AcDbSpline
210
0.0
220
0.0
230
1.0
 70
     8
 71
     3
 72
     9
 73
     5
 74
     3
 42
0.000000001
 43
0.0000000001
 44
0.00000001
 40
0.0
 40
0.0
 40
0.0
 40
0.0
 40
0.7088014569740497
 40
1.440374069018429
 40
1.440374069018429
 40
1.440374069018429
 40
1.440374069018429
 10
111.7640361025298
 20
139.1325513467799
 30
0.0
 10
111.9722576743241
 20
139.020663293313
 30
0.0
 10
112.395390211705
 20
138.7932926571478
 30
0.0
 10
112.8360106474589
 20
138.6019797065426
 30
0.0
 10
113.0598037969208
 20
138.5048109885277
 30
0.0
 11
111.7640361025298
 21
139.1325513467799
 31
0.0
 11
112.3929356548709
 21
138.8056188478323
 31
0.0
 11
113.0598037969208
 21
138.5048109885277
 31
0.0
  0
SPLINE
  5
272
330
1F
100
AcDbEntity
  8
0
  6
Continuous
 62
     7
100
AcDbSpline
210
0.0
220
0.0
230
1.0
 70
     8
 71
     3
 72
     9
 73
     5
 74
     3
 42
0.000000001
 43
0.0000000001
 44
0.00000001
 40
0.0
 40
0.0
 40
0.0
 40
0.0
 40
0.5244020397214381
 40
1.033677768955851
 40
1.033677768955851
 40
1.033677768955851
 40
1.033677768955851
 10
108.6553737936439
 20
146.3310489097767
 30
0.0
 10
108.5732152601238
 20
146.1763914845875
 30
0.0
 10
108.4112680636979
 20
145.8715376996964
 30
0.0
 10
108.3006576738717
 20
145.5445624347436
 30
0.0
 10
108.2461617959582
 20
145.3834671928206
 30
0.0
 11
108.6553737936439
 21
146.3310489097767
 31
0.0
 11
108.4221107704804
 21
145.8613832181877
 31
0.0
 11
108.2461617959582
 21
145.3834671928206
 31
0.0
  0
SPLINE
  5
273
330
1F
100
AcDbEntity
  8
0
  6
Continuous
 62
     7
100
AcDbSpline
210
0.0
220
0.0
230
1.0
 70
     8
 71
     3
 72
     9
 73
     5
 74
     3
 42
0.000000001
 43
0.0000000001
 44
0.00000001
 40
0.0
 40
0.0
 40
0.0
 40
0.0
 40
0.6508643306540497
 40
1.325999346457213
 40
1.325999346457213
 40
1.325999346457213
 40
1.325999346457213
 10
110.7686860744059
 20
139.9198657694052
 30
0.0
 10
110.9455836275489
 20
139.79402774205
 30
0.0
 10
111.3059752422359
 20
139.5376592127832
 30
0.0
 10
111.6892231012182
 20
139.3168902455174
 30
0.0
 10
111.8843544616804
 20
139.2044853268156
 30
0.0
 11
110.7686860744059
 21
139.9198657694052
 31
0.0
 11
111.3048855378928
 21
139.5509287657184
 31
0.0
 11
111.8843544616804
 21
139.2044853268156
 31
0.0
  0
SPLINE
  5
274
330
1F
100
AcDbEntity
  8
0
  6
Continuous
 62
     7
100
AcDbSpline
210
0.0
220
0.0
230
1.0
 70
     8
 71
     3
 72
     9
 73
     5
 74
     3
 42
0.000000001
 43
0.0000000001
 44
0.00000001
 40
0.0
 40
0.0
 40
0.0
 40
0.0
 40
0.6105709131690387
 40
1.197046743818195
 40
1.197046743818195
 40
1.197046743818195
 40
1.197046743818195
 10
98.73197632588625
 20
148.0822802734474
 30
0.0
 10
98.57953068262314
 20
147.9471197973117
 30
0.0
 10
98.280655402984
 20
147.682132695657
 30
0.0
 10
98.01592491570352
 20
147.3830562065678
 30
0.0
 10
97.88622402911454
 20
147.2365279766758
 30
0.0
 11
98.73197632588625
 21
148.0822802734474
 31
0.0
 11
98.28352270623432
 21
147.6679299488169
 31
0.0
 11
97.88622402911454
 21
147.2365279766758
 31
0.0
  0
SPLINE
  5
275
330
1F
100
AcDbEntity
  8
0
  6
Continuous
 62
     7
100
AcDbSpline
210
0.0
220
0.0
230
1.0
 70
     8
 71
     3
 72
     9
 73
     5
 74
     3
 42
0.000000001
 43
0.0000000001
 44
0.00000001
 40
0.0
 40
0.0
 40
0.0
 40
0.0
 40
0.4814646697898162
 40
0.9774387736483003
 40
0.9774387736483003
 40
0.9774387736483003
 40
0.9774387736483003
 10
98.94159278188175
 20
148.0822802734475
 30
0.0
 10
99.06615331445298
 20
148.1835893045026
 30
0.0
 10
99.31902815183581
 20
148.3892604028499
 30
0.0
 10
99.58749522965725
 20
148.5741253729942
 30
0.0
 10
99.72372138291729
 20
148.6679299491614
 30
0.0
 11
98.94159278188175
 21
148.0822802734475
 31
0.0
 11
99.31905757642502
 21
148.3811591074127
 31
0.0
 11
99.72372138291729
 21
148.6679299491614
 31
0.0
  0
SPLINE
  5
276
330
1F
100
AcDbEntity
  8
0
  6
Continuous
 62
     7
100
AcDbSpline
210
0.0
220
0.0
230
1.0
 70
     8
 71
     3
 72
     9
 73
     5
 74
     3
 42
0.000000001
 43
0.0000000001
 44
0.00000001
 40
0.0
 40
0.0
 40
0.0
 40
0.0
 40
0.742154089749516
 40
1.50365119063987
 40
1.50365119063987
 40
1.50365119063987
 40
1.50365119063987
 10
113.1616111890118
 20
138.5857126879651
 30
0.0
 10
113.3911043012279
 20
138.4930928660999
 30
0.0
 10
113.8560718887013
 20
138.3054392595809
 30
0.0
 10
114.3337064638624
 20
138.1528617064113
 30
0.0
 10
114.5755959070604
 20
138.0755915584259
 30
0.0
 11
113.1616111890118
 21
138.5857126879651
 31
0.0
 11
113.8531763259253
 21
138.3163980862335
 31
0.0
 11
114.5755959070604
 21
138.0755915584259
 31
0.0
  0
SPLINE
  5
277
330
1F
100
AcDbEntity
  8
0
  6
Continuous
 62
     7
100
AcDbSpline
210
0.0
220
0.0
230
1.0
 70
     8
 71
     3
 72
     9
 73
     5
 74
     3
 42
0.000000001
 43
0.0000000001
 44
0.00000001
 40
0.0
 40
0.0
 40
0.0
 40
0.0
 40
0.6849195822316109
 40
1.393721038269718
 40
1.393721038269718
 40
1.393721038269718
 40
1.393721038269718
 10
60.42031358444984
 20
148.8518441936643
 30
0.0
 10
60.22598314246833
 20
148.9719104947176
 30
0.0
 10
59.83054630689119
 20
149.2162295684526
 30
0.0
 10
59.41492073823238
 20
149.4243816444082
 30
0.0
 10
59.20354700785828
 20
149.5302410509851
 30
0.0
 11
60.42031358444984
 21
148.8518441936643
 31
0.0
 11
59.83244655864764
 21
149.2033085510405
 31
0.0
 11
59.20354700785828
 21
149.5302410509851
 31
0.0
  0
SPLINE
  5
278
330
1F
100
AcDbEntity
  8
0
  6
Continuous
 62
     7
100
AcDbSpline
210
0.0
220
0.0
230
1.0
 70
     8
 71
     3
 72
     9
 73
     5
 74
     3
 42
0.000000001
 43
0.0000000001
 44
0.00000001
 40
0.0
 40
0.0
 40
0.0
 40
0.0
 40
0.6262790323050484
 40
1.277143361970557
 40
1.277143361970557
 40
1.277143361970557
 40
1.277143361970557
 10
61.31811427832594
 20
148.0263609831003
 30
0.0
 10
61.15676958153121
 20
148.1590691510918
 30
0.0
 10
60.82774640576471
 20
148.4296950816427
 30
0.0
 10
60.47259248680611
 20
148.6650091716799
 30
0.0
 10
60.29159712493976
 20
148.7849311330276
 30
0.0
 11
61.31811427832594
 21
148.0263609831003
 31
0.0
 11
60.82779658667315
 21
148.4159941284923
 31
0.0
 11
60.29159712493976
 21
148.7849311330276
 31
0.0
  0
SPLINE
  5
279
330
1F
100
AcDbEntity
  8
0
  6
Continuous
 62
     7
100
AcDbSpline
210
0.0
220
0.0
230
1.0
 70
     8
 71
     3
 72
     9
 73
     5
 74
     3
 42
0.000000001
 43
0.0000000001
 44
0.00000001
 40
0.0
 40
0.0
 40
0.0
 40
0.0
 40
0.721121575599799
 40
1.463275664540653
 40
1.463275664540653
 40
1.463275664540653
 40
1.463275664540653
 10
59.09221292801306
 20
149.4536366066733
 30
0.0
 10
58.87430032926608
 20
149.5553341176677
 30
0.0
 10
58.4321193998738
 20
149.7616952706294
 30
0.0
 10
57.9751003605441
 20
149.9327202244741
 30
0.0
 10
57.74330633666227
 20
150.0194618126319
 30
0.0
 11
59.09221292801306
 21
149.4536366066733
 31
0.0
 11
58.43487147229632
 21
149.7501472098049
 31
0.0
 11
57.74330633666227
 21
150.0194618126319
 31
0.0
  0
SPLINE
  5
27A
330
1F
100
AcDbEntity
  8
0
  6
Continuous
 62
     7
100
AcDbSpline
210
0.0
220
0.0
230
1.0
 70
     8
 71
     3
 72
     9
 73
     5
 74
     3
 42
0.000000001
 43
0.0000000001
 44
0.00000001
 40
0.0
 40
0.0
 40
0.0
 40
0.0
 40
0.6105709131691367
 40
1.197046743818428
 40
1.197046743818428
 40
1.197046743818428
 40
1.197046743818428
 10
72.86450633609394
 20
148.0822802734475
 30
0.0
 10
73.01695197935703
 20
147.9471197973118
 30
0.0
 10
73.31582725899618
 20
147.682132695657
 30
0.0
 10
73.58055774627684
 20
147.3830562065678
 30
0.0
 10
73.71025863286587
 20
147.2365279766758
 30
0.0
 11
72.86450633609394
 21
148.0822802734475
 31
0.0
 11
73.3129599557459
 21
147.6679299488169
 31
0.0
 11
73.71025863286587
 21
147.2365279766758
 31
0.0
  0
SPLINE
  5
27B
330
1F
100
AcDbEntity
  8
0
  6
Continuous
 62
     7
100
AcDbSpline
210
0.0
220
0.0
230
1.0
 70
     8
 71
     3
 72
     9
 73
     5
 74
     3
 42
0.000000001
 43
0.0000000001
 44
0.00000001
 40
0.0
 40
0.0
 40
0.0
 40
0.0
 40
0.0161819178361335
 40
0.0323454911666906
 40
0.0323454911666906
 40
0.0323454911666906
 40
0.0323454911666906
 10
73.55458293749268
 20
147.192690861997
 30
0.0
 10
73.55806126311907
 20
147.1885682113587
 30
0.0
 10
73.56501395589274
 20
147.180327570815
 30
0.0
 10
73.57193571597105
 20
147.1720609312024
 30
0.0
 10
73.57539462554297
 20
147.1679299491521
 30
0.0
 11
73.55458293749268
 21
147.192690861997
 31
0.0
 11
73.5650101647681
 21
147.1803163964891
 31
0.0
 11
73.57539462554297
 21
147.1679299491521
 31
0.0
  0
SPLINE
  5
27C
330
1F
100
AcDbEntity
  8
0
  6
Continuous
 62
     7
100
AcDbSpline
210
0.0
220
0.0
230
1.0
 70
     8
 71
     3
 72
    11
 73
     7
 74
     5
 42
0.000000001
 43
0.0000000001
 44
0.00000001
 40
0.0
 40
0.0
 40
0.0
 40
0.0
 40
0.0521025907267703
 40
0.0967130359658115
 40
0.1480832902844324
 40
0.1908881225696558
 40
0.1908881225696558
 40
0.1908881225696558
 40
0.1908881225696558
 10
71.87276127906284
 20
148.6679299491617
 30
0.0
 10
71.85842237749678
 20
148.6777330836849
 30
0.0
 10
71.83180645966394
 20
148.6959297127109
 30
0.0
 10
71.7922613149719
 20
148.7254847738991
 30
0.0
 10
71.75609142280322
 20
148.7543666396556
 30
0.0
 10
71.73276297127957
 20
148.7753800357876
 30
0.0
 10
71.72215963614553
 20
148.7849311330147
 30
0.0
 11
71.87276127906284
 21
148.6679299491617
 31
0.0
 11
71.82997358012491
 21
148.6976602834661
 31
0.0
 11
71.79419980380453
 21
148.7243122774128
 31
0.0
 11
71.75422069385283
 21
148.7565702043958
 31
0.0
 11
71.72215963614553
 21
148.7849311330147
 31
0.0
  0
SPLINE
  5
27D
330
1F
100
AcDbEntity
  8
0
  6
Continuous
 62
     7
100
AcDbSpline
210
0.0
220
0.0
230
1.0
 70
     8
 71
     3
 72
    17
 73
    13
 74
    11
 42
0.000000001
 43
0.0000000001
 44
0.00000001
 40
0.0
 40
0.0
 40
0.0
 40
0.0
 40
0.0428903385421965
 40
0.0813702652278866
 40
0.1187971390176779
 40
0.1571874796731775
 40
0.1917404207978862
 40
0.2275886728615804
 40
0.2511783005493371
 40
0.2746775609542767
 40
0.2999121521047292
 40
0.3253451224588355
 40
0.3253451224588355
 40
0.3253451224588355
 40
0.3253451224588355
 10
71.89321847117327
 20
148.851844193762
 30
0.0
 10
71.88480027219559
 20
148.863418447445
 30
0.0
 10
71.86882952876181
 20
148.8853767826211
 30
0.0
 10
71.85042502293201
 20
148.920619913799
 30
0.0
 10
71.83823439450649
 20
148.9569341346161
 30
0.0
 10
71.83512063190932
 20
148.9941390429381
 30
0.0
 10
71.84365361794592
 20
149.0300270841556
 30
0.0
 10
71.86052682026886
 20
149.0570277338746
 30
0.0
 10
71.87997978070295
 20
149.0767954992481
 30
0.0
 10
71.89914601492669
 20
149.0915141138309
 30
0.0
 10
71.9203074184152
 20
149.1044056015629
 30
0.0
 10
71.93562416801822
 20
149.1115447875967
 30
0.0
 10
71.94331253070504
 20
149.115128350607
 30
0.0
 11
71.89321847117327
 21
148.851844193762
 31
0.0
 11
71.86889866836617
 21
148.8871730561903
 31
0.0
 11
71.85120339861714
 21
148.9213429594622
 31
0.0
 11
71.83978647247024
 21
148.9569859781504
 31
0.0
 11
71.83716714823686
 21
148.995286859595
 31
0.0
 11
71.84526627831438
 21
149.0288771846687
 31
0.0
 11
71.86391729136778
 21
149.0594915113071
 31
0.0
 11
71.88036088472845
 21
149.0764053758242
 31
0.0
 11
71.89891632135493
 21
149.0908244968701
 31
0.0
 11
71.92046417684016
 21
149.1039574544798
 31
0.0
 11
71.94331253070504
 21
149.115128350607
 31
0.0
  0
SPLINE
  5
27E
330
1F
100
AcDbEntity
  8
0
  6
Continuous
 62
     7
100
AcDbSpline
210
0.0
220
0.0
230
1.0
 70
     8
 71
     3
 72
     9
 73
     5
 74
     3
 42
0.000000001
 43
0.0000000001
 44
0.00000001
 40
0.0
 40
0.0
 40
0.0
 40
0.0
 40
0.4959741038587411
 40
0.97743877364869
 40
0.97743877364869
 40
0.97743877364869
 40
0.97743877364869
 10
71.87276127906284
 20
148.6679299491617
 30
0.0
 10
72.00898743232294
 20
148.5741253729944
 30
0.0
 10
72.27745451014435
 20
148.3892604028499
 30
0.0
 10
72.53032934752734
 20
148.1835893045025
 30
0.0
 10
72.65488988009855
 20
148.0822802734474
 30
0.0
 11
71.87276127906284
 21
148.6679299491617
 31
0.0
 11
72.27742508555522
 21
148.3811591074127
 31
0.0
 11
72.65488988009855
 21
148.0822802734474
 31
0.0
  0
SPLINE
  5
27F
330
1F
100
AcDbEntity
  8
0
  6
Continuous
 62
     7
100
AcDbSpline
210
0.0
220
0.0
230
1.0
 70
     8
 71
     3
 72
     9
 73
     5
 74
     3
 42
0.000000001
 43
0.0000000001
 44
0.00000001
 40
0.0
 40
0.0
 40
0.0
 40
0.0
 40
0.093232600859854
 40
0.1836900492721161
 40
0.1836900492721161
 40
0.1836900492721161
 40
0.1836900492721161
 10
71.89321847117327
 20
148.851844193762
 30
0.0
 10
71.86410450962231
 20
148.8409667055734
 30
0.0
 10
71.80674319703965
 20
148.8195354887791
 30
0.0
 10
71.75006874526535
 20
148.7963491595672
 30
0.0
 10
71.72215963614553
 20
148.7849311330147
 30
0.0
 11
71.89321847117327
 21
148.851844193762
 31
0.0
 11
71.80605353305472
 21
148.8187595833666
 31
0.0
 11
71.72215963614553
 21
148.7849311330147
 31
0.0
  0
SPLINE
  5
280
330
1F
100
AcDbEntity
  8
0
  6
Continuous
 62
     7
100
AcDbSpline
210
0.0
220
0.0
230
1.0
 70
     8
 71
     3
 72
     9
 73
     5
 74
     3
 42
0.000000001
 43
0.0000000001
 44
0.00000001
 40
0.0
 40
0.0
 40
0.0
 40
0.0
 40
0.7725332915077204
 40
1.562735005242472
 40
1.562735005242472
 40
1.562735005242472
 40
1.562735005242472
 10
57.83509104561836
 20
150.1042666222475
 30
0.0
 10
57.5916781348883
 20
150.1885742709916
 30
0.0
 10
57.09928526946484
 20
150.3591177293025
 30
0.0
 10
56.59604573978257
 20
150.4943616580008
 30
0.0
 10
56.34158113643935
 20
150.5627481526509
 30
0.0
 11
57.83509104561836
 21
150.1042666222475
 31
0.0
 11
57.10220161432068
 21
150.3485630985729
 31
0.0
 11
56.34158113643935
 21
150.5627481526509
 31
0.0
  0
SPLINE
  5
281
330
1F
100
AcDbEntity
  8
0
  6
Continuous
 62
     7
100
AcDbSpline
210
0.0
220
0.0
230
1.0
 70
     8
 71
     3
 72
     9
 73
     5
 74
     3
 42
0.000000001
 43
0.0000000001
 44
0.00000001
 40
0.0
 40
0.0
 40
0.0
 40
0.0
 40
0.5864758306491851
 40
1.197046743818317
 40
1.197046743818317
 40
1.197046743818317
 40
1.197046743818317
 10
62.30746009480254
 20
147.2365279766758
 30
0.0
 10
62.17775920821352
 20
147.3830562065677
 30
0.0
 10
61.91302872093302
 20
147.6821326956571
 30
0.0
 10
61.61415344129389
 20
147.9471197973118
 30
0.0
 10
61.46170779803077
 20
148.0822802734475
 30
0.0
 11
62.30746009480254
 21
147.2365279766758
 31
0.0
 11
61.91016141768272
 21
147.6679299488169
 31
0.0
 11
61.46170779803077
 21
148.0822802734475
 31
0.0
  0
SPLINE
  5
282
330
1F
100
AcDbEntity
  8
0
  6
Continuous
 62
     7
100
AcDbSpline
210
0.0
220
0.0
230
1.0
 70
     8
 71
     3
 72
     9
 73
     5
 74
     3
 42
0.000000001
 43
0.0000000001
 44
0.00000001
 40
0.0
 40
0.0
 40
0.0
 40
0.0
 40
0.7942001958951032
 40
1.60138956476107
 40
1.60138956476107
 40
1.60138956476107
 40
1.60138956476107
 10
56.27113228332865
 20
150.4713936068866
 30
0.0
 10
56.01391087199998
 20
150.5343410863758
 30
0.0
 10
55.4952611795113
 20
150.6612655341434
 30
0.0
 10
54.96940547369675
 20
150.7539284166789
 30
0.0
 10
54.70434496138734
 20
150.8006356511269
 30
0.0
 11
56.27113228332865
 21
150.4713936068866
 31
0.0
 11
55.49769564991596
 21
150.6518090319543
 31
0.0
 11
54.70434496138734
 21
150.8006356511269
 31
0.0
  0
SPLINE
  5
283
330
1F
100
AcDbEntity
  8
0
  6
Continuous
 62
     7
100
AcDbSpline
210
0.0
220
0.0
230
1.0
 70
     8
 71
     3
 72
     9
 73
     5
 74
     3
 42
0.000000001
 43
0.0000000001
 44
0.00000001
 40
0.0
 40
0.0
 40
0.0
 40
0.0
 40
0.8295939446465349
 40
1.6673125489461
 40
1.6673125489461
 40
1.6673125489461
 40
1.6673125489461
 10
54.75208675186127
 20
150.896761820721
 30
0.0
 10
54.4787248787736
 20
150.9389967944256
 30
0.0
 10
53.92932395011681
 20
151.0238803518288
 30
0.0
 10
53.37570429126819
 20
151.0744156595354
 30
0.0
 10
53.09754559205646
 20
151.0998064303438
 30
0.0
 11
54.75208675186127
 21
150.896761820721
 31
0.0
 11
53.93095670233424
 21
151.0149631536336
 31
0.0
 11
53.09754559205646
 21
151.0998064303438
 31
0.0
  0
SPLINE
  5
284
330
1F
100
AcDbEntity
  8
0
  6
Continuous
 62
     7
100
AcDbSpline
210
0.0
220
0.0
230
1.0
 70
     8
 71
     3
 72
     9
 73
     5
 74
     3
 42
0.000000001
 43
0.0000000001
 44
0.00000001
 40
0.0
 40
0.0
 40
0.0
 40
0.0
 40
0.7315726120462402
 40
1.440374069022106
 40
1.440374069022106
 40
1.440374069022106
 40
1.440374069022106
 10
58.53667886506008
 20
138.5048109885277
 30
0.0
 10
58.76047201452256
 20
138.6019797065428
 30
0.0
 10
59.20109245027756
 20
138.7932926571485
 30
0.0
 10
59.62422498765944
 20
139.0206632933145
 30
0.0
 10
59.83244655945424
 20
139.1325513467818
 30
0.0
 11
58.53667886506008
 21
138.5048109885277
 31
0.0
 11
59.20354700711168
 21
138.8056188478331
 31
0.0
 11
59.83244655945424
 21
139.1325513467818
 31
0.0
  0
SPLINE
  5
285
330
1F
100
AcDbEntity
  8
0
  6
Continuous
 62
     7
100
AcDbSpline
210
0.0
220
0.0
230
1.0
 70
     8
 71
     3
 72
     9
 73
     5
 74
     3
 42
0.000000001
 43
0.0000000001
 44
0.00000001
 40
0.0
 40
0.0
 40
0.0
 40
0.0
 40
0.7614971008903872
 40
1.503651190639887
 40
1.503651190639887
 40
1.503651190639887
 40
1.503651190639887
 10
57.02088675492047
 20
138.0755915584258
 30
0.0
 10
57.26277619811845
 20
138.1528617064112
 30
0.0
 10
57.74041077327956
 20
138.3054392595809
 30
0.0
 10
58.20537836075292
 20
138.4930928660999
 30
0.0
 10
58.43487147296906
 20
138.5857126879651
 30
0.0
 11
57.02088675492047
 21
138.0755915584258
 31
0.0
 11
57.74330633605556
 21
138.3163980862335
 31
0.0
 11
58.43487147296906
 21
138.5857126879651
 31
0.0
  0
SPLINE
  5
286
330
1F
100
AcDbEntity
  8
0
  6
Continuous
 62
     7
100
AcDbSpline
210
0.0
220
0.0
230
1.0
 70
     8
 71
     3
 72
     9
 73
     5
 74
     3
 42
0.000000001
 43
0.0000000001
 44
0.00000001
 40
0.0
 40
0.0
 40
0.0
 40
0.0
 40
0.8057103430923858
 40
1.595912057489727
 40
1.595912057489727
 40
1.595912057489727
 40
1.595912057489727
 10
55.55693527685276
 20
137.590081603651
 30
0.0
 10
55.81924937339309
 20
137.6481164723606
 30
0.0
 10
56.33882843709397
 20
137.7630691512813
 30
0.0
 10
56.84939774742485
 20
137.9130400352361
 30
0.0
 10
57.10220161486586
 20
137.98729679914
 30
0.0
 11
55.55693527685276
 21
137.590081603651
 31
0.0
 11
56.34158113596704
 21
137.7731117462668
 31
0.0
 11
57.10220161486586
 21
137.98729679914
 31
0.0
  0
SPLINE
  5
287
330
1F
100
AcDbEntity
  8
0
  6
Continuous
 62
     7
100
AcDbSpline
210
0.0
220
0.0
230
1.0
 70
     8
 71
     3
 72
     9
 73
     5
 74
     3
 42
0.000000001
 43
0.0000000001
 44
0.00000001
 40
0.0
 40
0.0
 40
0.0
 40
0.0
 40
0.6751350158031607
 40
1.325999346457349
 40
1.325999346457349
 40
1.325999346457349
 40
1.325999346457349
 10
59.71212820030047
 20
139.2044853268156
 30
0.0
 10
59.90725956076263
 20
139.3168902455174
 30
0.0
 10
60.29050741974501
 20
139.5376592127831
 30
0.0
 10
60.65089903443204
 20
139.7940277420501
 30
0.0
 10
60.82779658757505
 20
139.9198657694053
 30
0.0
 11
59.71212820030047
 21
139.2044853268156
 31
0.0
 11
60.29159712408805
 21
139.5509287657184
 31
0.0
 11
60.82779658757505
 21
139.9198657694053
 31
0.0
  0
SPLINE
  5
288
330
1F
100
AcDbEntity
  8
0
  6
Continuous
 62
     7
100
AcDbSpline
210
0.0
220
0.0
230
1.0
 70
     8
 71
     3
 72
    17
 73
    13
 74
    11
 42
0.000000001
 43
0.0000000001
 44
0.00000001
 40
0.0
 40
0.0
 40
0.0
 40
0.0
 40
0.0663708641080953
 40
0.1380952941695693
 40
0.2105441414319536
 40
0.276421638424838
 40
0.3412969983783288
 40
0.4040428391340762
 40
0.4383233403574264
 40
0.4786335212579897
 40
0.517762451229955
 40
0.5534313408857972
 40
0.5534313408857972
 40
0.5534313408857972
 40
0.5534313408857972
 10
119.7149117032745
 20
136.8221678548246
 30
0.0
 10
119.7370454797309
 20
136.8227292475378
 30
0.0
 10
119.7830983730497
 20
136.8238973305955
 30
0.0
 10
119.8526244144448
 20
136.8352013629188
 30
0.0
 10
119.9197051232073
 20
136.8563734974131
 30
0.0
 10
119.9796989938221
 20
136.8888033516238
 30
0.0
 10
120.028854875346
 20
136.9314790543364
 30
0.0
 10
120.0601378164097
 20
136.9761584429549
 30
0.0
 10
120.0790713421326
 20
137.0179594850086
 30
0.0
 10
120.0898827831026
 20
137.0544132504016
 30
0.0
 10
120.096143515484
 20
137.0923999767816
 30
0.0
 10
120.0968279014195
 20
137.1173439286916
 30
0.0
 10
120.0971542583476
 20
137.1292389691901
 30
0.0
 11
119.7149117032745
 21
136.8221678548246
 31
0.0
 11
119.7812088625845
 21
136.8252948601445
 31
0.0
 11
119.8519974763777
 21
136.8368432861755
 31
0.0
 11
119.920888787798
 21
136.8592669981101
 31
0.0
 11
119.9786272048014
 21
136.8909863926047
 31
0.0
 11
120.0273902276405
 21
136.9337763461446
 31
0.0
 11
120.0633916214026
 21
136.9851664266483
 31
0.0
 11
120.0775659208799
 21
137.0163792775249
 31
0.0
 11
120.08916297285
 21
137.0549852248892
 31
0.0
 11
120.095405671186
 21
137.0936129614306
 31
0.0
 11
120.0971542583476
 21
137.1292389691901
 31
0.0
  0
SPLINE
  5
289
330
1F
100
AcDbEntity
  8
0
  6
Continuous
 62
     7
100
AcDbSpline
210
0.0
220
0.0
230
1.0
 70
     8
 71
     3
 72
     9
 73
     5
 74
     3
 42
0.000000001
 43
0.0000000001
 44
0.00000001
 40
0.0
 40
0.0
 40
0.0
 40
0.0
 40
0.7902017143973143
 40
1.595912057489754
 40
1.595912057489754
 40
1.595912057489754
 40
1.595912057489754
 10
114.494281047115
 20
137.98729679914
 30
0.0
 10
114.747084914556
 20
137.9130400352361
 30
0.0
 10
115.2576542248869
 20
137.7630691512813
 30
0.0
 10
115.7772332885878
 20
137.6481164723606
 30
0.0
 10
116.0395473851281
 20
137.5900816036509
 30
0.0
 11
114.494281047115
 21
137.98729679914
 31
0.0
 11
115.2549015260138
 21
137.7731117462668
 31
0.0
 11
116.0395473851281
 21
137.5900816036509
 31
0.0
  0
SPLINE
  5
28A
330
1F
100
AcDbEntity
  8
0
  6
Continuous
 62
     7
100
AcDbSpline
210
0.0
220
0.0
230
1.0
 70
     8
 71
     3
 72
     9
 73
     5
 74
     3
 42
0.000000001
 43
0.0000000001
 44
0.00000001
 40
0.0
 40
0.0
 40
0.0
 40
0.0
 40
0.83771860457017
 40
1.680898627533366
 40
1.680898627533366
 40
1.680898627533366
 40
1.680898627533366
 10
117.6655259594052
 20
137.320896744016
 30
0.0
 10
117.9430996314833
 20
137.2897830352701
 30
0.0
 10
118.500056589843
 20
137.2273527951338
 30
0.0
 10
119.0597919472547
 20
137.1991358831807
 30
0.0
 10
119.3405689465209
 20
137.184981597334
 30
0.0
 11
117.6655259594052
 21
137.320896744016
 31
0.0
 11
118.498937070086
 21
137.2360534686258
 31
0.0
 11
119.3405689465209
 21
137.184981597334
 31
0.0
  0
SPLINE
  5
28B
330
1F
100
AcDbEntity
  8
0
  6
Continuous
 62
     7
100
AcDbSpline
210
0.0
220
0.0
230
1.0
 70
     8
 71
     3
 72
     9
 73
     5
 74
     3
 42
0.000000001
 43
0.0000000001
 44
0.00000001
 40
0.0
 40
0.0
 40
0.0
 40
0.0
 40
0.8071893693355613
 40
1.624931971542682
 40
1.624931971542682
 40
1.624931971542682
 40
1.624931971542682
 10
116.0987870116734
 20
137.6840508657297
 30
0.0
 10
116.3627733267635
 20
137.6316421698795
 30
0.0
 10
116.8941973302806
 20
137.5261396040416
 30
0.0
 10
117.4312613230759
 20
137.4546755734717
 30
0.0
 10
117.7015373206036
 20
137.4187115040894
 30
0.0
 11
116.0987870116734
 21
137.6840508657297
 31
0.0
 11
116.8921377009091
 21
137.5352242478135
 31
0.0
 11
117.7015373206036
 21
137.4187115040894
 31
0.0
  0
SPLINE
  5
28C
330
1F
100
AcDbEntity
  8
0
  6
Continuous
 62
     7
100
AcDbSpline
210
0.0
220
0.0
230
1.0
 70
     8
 71
     3
 72
     9
 73
     5
 74
     3
 42
0.000000001
 43
0.0000000001
 44
0.00000001
 40
0.0
 40
0.0
 40
0.0
 40
0.0
 40
0.8177426022071027
 40
1.624931971542662
 40
1.624931971542662
 40
1.624931971542662
 40
1.624931971542662
 10
53.89494534137725
 20
137.4187115040894
 30
0.0
 10
54.16522133890501
 20
137.4546755734717
 30
0.0
 10
54.70228533170024
 20
137.5261396040415
 30
0.0
 10
55.23370933521735
 20
137.6316421698795
 30
0.0
 10
55.49769565030744
 20
137.6840508657297
 30
0.0
 11
53.89494534137725
 21
137.4187115040894
 31
0.0
 11
54.70434496107175
 21
137.5352242478135
 31
0.0
 11
55.49769565030744
 21
137.6840508657297
 31
0.0
  0
SPLINE
  5
28D
330
1F
100
AcDbEntity
  8
0
  6
Continuous
 62
     7
100
AcDbSpline
210
0.0
220
0.0
230
1.0
 70
     8
 71
     3
 72
    11
 73
     7
 74
     5
 42
0.000000001
 43
0.0000000001
 44
0.00000001
 40
0.0
 40
0.0
 40
0.0
 40
0.0
 40
0.1696989958054674
 40
0.3433920896858228
 40
0.5192947820669847
 40
0.6991137353429075
 40
0.6991137353429075
 40
0.6991137353429075
 40
0.6991137353429075
 10
51.49932841597274
 20
137.2679299491529
 30
0.0
 10
51.55589504120647
 20
137.2681429082114
 30
0.0
 10
51.67035966449924
 20
137.268573853696
 30
0.0
 10
51.84343321315461
 20
137.2717787396251
 30
0.0
 10
52.01984462521821
 20
137.2764620876357
 30
0.0
 10
52.1383409074519
 20
137.2807702025546
 30
0.0
 10
52.19824133130123
 20
137.2829479823075
 30
0.0
 11
51.49932841597274
 21
137.2679299491529
 31
0.0
 11
51.669024155965
 21
137.2689811538761
 31
0.0
 11
51.84269108473535
 21
137.2719959098821
 31
0.0
 11
52.01853056083348
 21
137.2767114018343
 31
0.0
 11
52.19824133130123
 21
137.2829479823075
 31
0.0
  0
SPLINE
  5
28E
330
1F
100
AcDbEntity
  8
0
  6
Continuous
 62
     7
100
AcDbSpline
210
0.0
220
0.0
230
1.0
 70
     8
 71
     3
 72
     9
 73
     5
 74
     3
 42
0.000000001
 43
0.0000000001
 44
0.00000001
 40
0.0
 40
0.0
 40
0.0
 40
0.0
 40
0.0228136584098271
 40
0.0456253429457043
 40
0.0456253429457043
 40
0.0456253429457043
 40
0.0456253429457043
 10
52.19824133130123
 20
137.2829479823075
 30
0.0
 10
52.20584027584283
 20
137.2832400222784
 30
0.0
 10
52.22103750667416
 20
137.2838240969373
 30
0.0
 10
52.23623374815926
 20
137.2844333693442
 30
0.0
 10
52.24383153979176
 20
137.2847380023601
 30
0.0
 11
52.19824133130123
 21
137.2829479823075
 31
0.0
 11
52.22103791718126
 21
137.2838304121957
 31
0.0
 11
52.24383153979176
 21
137.2847380023601
 31
0.0
  0
SPLINE
  5
28F
330
1F
100
AcDbEntity
  8
0
  6
Continuous
 62
     7
100
AcDbSpline
210
0.0
220
0.0
230
1.0
 70
     8
 71
     3
 72
     9
 73
     5
 74
     3
 42
0.000000001
 43
0.0000000001
 44
0.00000001
 40
0.0
 40
0.0
 40
0.0
 40
0.0
 40
0.8431800229632244
 40
1.680898627533387
 40
1.680898627533387
 40
1.680898627533387
 40
1.680898627533387
 10
52.25591371545994
 20
137.184981597334
 30
0.0
 10
52.53669071472621
 20
137.1991358831807
 30
0.0
 10
53.0964260721378
 20
137.2273527951339
 30
0.0
 10
53.6533830304975
 20
137.2897830352701
 30
0.0
 10
53.93095670257566
 20
137.320896744016
 30
0.0
 11
52.25591371545994
 21
137.184981597334
 31
0.0
 11
53.09754559189488
 21
137.2360534686258
 31
0.0
 11
53.93095670257566
 21
137.320896744016
 31
0.0
  0
SPLINE
  5
290
330
1F
100
AcDbEntity
  8
0
  6
Continuous
 62
     7
100
AcDbSpline
210
0.0
220
0.0
230
1.0
 70
     8
 71
     3
 72
    11
 73
     7
 74
     5
 42
0.000000001
 43
0.0000000001
 44
0.00000001
 40
0.0
 40
0.0
 40
0.0
 40
0.0
 40
0.1798189527289763
 40
0.3557216451919515
 40
0.5294147391756465
 40
0.6991137350340021
 40
0.6991137350340021
 40
0.6991137350340021
 40
0.6991137350340021
 10
119.3982413309904
 20
137.2829479822957
 30
0.0
 10
119.4581417546575
 20
137.2807702025495
 30
0.0
 10
119.5766380367363
 20
137.2764620876362
 30
0.0
 10
119.7530494486793
 20
137.2717787396284
 30
0.0
 10
119.9261229974141
 20
137.2685738536963
 30
0.0
 10
120.0405876207588
 20
137.2681429082116
 30
0.0
 10
120.0971542460102
 20
137.2679299491529
 30
0.0
 11
119.3982413309904
 21
137.2829479822957
 31
0.0
 11
119.5779521009115
 21
137.276711401841
 31
0.0
 11
119.7537915770914
 21
137.2719959098855
 31
0.0
 11
119.9274585059651
 21
137.2689811538767
 31
0.0
 11
120.0971542460102
 21
137.2679299491529
 31
0.0
  0
SPLINE
  5
291
330
1F
100
AcDbEntity
  8
0
  6
Continuous
 62
     7
100
AcDbSpline
210
0.0
220
0.0
230
1.0
 70
     8
 71
     3
 72
     9
 73
     5
 74
     3
 42
0.000000001
 43
0.0000000001
 44
0.00000001
 40
0.0
 40
0.0
 40
0.0
 40
0.0
 40
0.0228116845153214
 40
0.0456253432567972
 40
0.0456253432567972
 40
0.0456253432567972
 40
0.0456253432567972
 10
119.352651122189
 20
137.2847380023601
 30
0.0
 10
119.3602489138147
 20
137.2844333693446
 30
0.0
 10
119.3754451554034
 20
137.2838240969336
 30
0.0
 10
119.3906423863383
 20
137.2832400222708
 30
0.0
 10
119.3982413309904
 20
137.2829479822957
 30
0.0
 11
119.352651122189
 21
137.2847380023601
 31
0.0
 11
119.375444744779
 21
137.2838304121966
 31
0.0
 11
119.3982413309904
 21
137.2829479822957
 31
0.0
  0
SPLINE
  5
292
330
1F
100
AcDbEntity
  8
0
  6
Continuous
 62
     7
100
AcDbSpline
210
0.0
220
0.0
230
1.0
 70
     8
 71
     3
 72
    13
 73
     9
 74
     7
 42
0.000000001
 43
0.0000000001
 44
0.00000001
 40
0.0
 40
0.0
 40
0.0
 40
0.0
 40
0.6824889800035417
 40
1.371552288772098
 40
2.071856826354185
 40
2.784921001841707
 40
3.508853816059462
 40
4.238987884024521
 40
4.238987884024521
 40
4.238987884024521
 40
4.238987884024521
 10
118.0482413309899
 20
130.9473228121497
 30
0.0
 10
118.0295244749818
 20
131.1755579597251
 30
0.0
 10
117.9919104517171
 20
131.6342268127162
 30
0.0
 10
117.6955900764304
 20
132.2726814230953
 30
0.0
 10
117.2467220622896
 20
132.8198274342433
 30
0.0
 10
116.6591717482829
 20
133.235002102069
 30
0.0
 10
115.9781763583913
 20
133.506901659723
 30
0.0
 10
115.492243803462
 20
133.541161889664
 30
0.0
 10
115.24824133099
 20
133.5583650533351
 30
0.0
 11
118.0482413309899
 21
130.9473228121497
 31
0.0
 11
117.9528329235395
 21
131.6231100915668
 31
0.0
 11
117.6731124615866
 21
132.2528439327423
 31
0.0
 11
117.2281397904599
 21
132.793607994626
 31
0.0
 11
116.6482413309901
 21
133.2085517233705
 31
0.0
 11
115.9729344640698
 21
133.4693952740431
 31
0.0
 11
115.24824133099
 21
133.5583650533351
 31
0.0
  0
SPLINE
  5
293
330
1F
100
AcDbEntity
  8
0
  6
Continuous
 62
     7
100
AcDbSpline
210
0.0
220
0.0
230
1.0
 70
     8
 71
     3
 72
    13
 73
     9
 74
     7
 42
0.000000001
 43
0.0000000001
 44
0.00000001
 40
0.0
 40
0.0
 40
0.0
 40
0.0
 40
0.730134067965031
 40
1.454066882182806
 40
2.167131057670316
 40
2.867435595252399
 40
3.556498904020966
 40
4.238987884024517
 40
4.238987884024517
 40
4.238987884024517
 40
4.238987884024517
 10
56.34824133099011
 20
133.5583650533351
 30
0.0
 10
56.10423885851814
 20
133.541161889664
 30
0.0
 10
55.61830630358885
 20
133.506901659723
 30
0.0
 10
54.9373109136972
 20
133.235002102069
 30
0.0
 10
54.34976059969051
 20
132.8198274342433
 30
0.0
 10
53.90089258554975
 20
132.2726814230953
 30
0.0
 10
53.60457221026298
 20
131.6342268127162
 30
0.0
 10
53.56695818699825
 20
131.1755579597251
 30
0.0
 10
53.54824133099015
 20
130.9473228121497
 30
0.0
 11
56.34824133099011
 21
133.5583650533351
 31
0.0
 11
55.6235481979104
 21
133.4693952740431
 31
0.0
 11
54.94824133099002
 21
133.2085517233705
 31
0.0
 11
54.36834287152018
 21
132.793607994626
 31
0.0
 11
53.92337020039355
 21
132.2528439327423
 31
0.0
 11
53.64364973844059
 21
131.6231100915668
 31
0.0
 11
53.54824133099015
 21
130.9473228121497
 31
0.0
  0
SPLINE
  5
294
330
1F
100
AcDbEntity
  8
0
  6
Continuous
 62
     7
100
AcDbSpline
210
0.0
220
0.0
230
1.0
 70
     8
 71
     3
 72
    52
 73
    48
 74
    46
 42
0.000000001
 43
0.0000000001
 44
0.00000001
 40
0.0
 40
0.0
 40
0.0
 40
0.0
 40
0.0428244214981132
 40
0.0839129729652189
 40
0.1231943610822103
 40
0.1605972912960671
 40
0.1960504687688102
 40
0.229482598392842
 40
0.2608223848057776
 40
0.2899985324048471
 40
0.3169397453605093
 40
0.3415747276290943
 40
0.3638321829655553
 40
0.3836408149357748
 40
0.4265584925206111
 40
0.4667542487909767
 40
0.5042434901924975
 40
0.5390416226786436
 40
0.5711640517052775
 40
0.6006261822253947
 40
0.6274434186840955
 40
0.6516311650146043
 40
0.6732048246342229
 40
0.6921798004431294
 40
0.708571494826036
 40
0.7385001492050456
 40
0.7659173205851642
 40
0.7909247171667528
 40
0.8136240465944712
 40
0.8341170158814118
 40
0.8525053313197452
 40
0.8688906983771902
 40
0.8833748215747348
 40
0.896059404344905
 40
0.9070461488675221
 40
0.9164367558841171
 40
0.9243329244975915
 40
0.9344859302235605
 40
0.9448992827097525
 40
0.9552600076135136
 40
0.9652551442585644
 40
0.9745717556022422
 40
0.9828969492760569
 40
0.9899179287030416
 40
0.9953221465520368
 40
0.998797970178673
 40
1.000041982700724
 40
1.000041982700724
 40
1.000041982700724
 40
1.000041982700724
 10
127.2482414650405
 20
100.667929949155
 30
0.0
 10
127.2625162722278
 20
100.6679291836533
 30
0.0
 10
127.2904872632592
 20
100.6679276980711
 30
0.0
 10
127.3315520489362
 20
100.6679159017755
 30
0.0
 10
127.370809668355
 20
100.6678981864798
 30
0.0
 10
127.4081888264956
 20
100.6678747934959
 30
0.0
 10
127.4436182280296
 20
100.6678468083107
 30
0.0
 10
127.4770265776274
 20
100.6678151056191
 30
0.0
 10
127.508342579959
 20
100.66778061223
 30
0.0
 10
127.5374949396933
 20
100.6677442420104
 30
0.0
 10
127.5644123614978
 20
100.6677069113579
 30
0.0
 10
127.5890235500386
 20
100.6676695365759
 30
0.0
 10
127.6112572099812
 20
100.6676330298513
 30
0.0
 10
127.6395850880404
 20
100.6675833230205
 30
0.0
 10
127.6738923800677
 20
100.6675172542323
 30
0.0
 10
127.7140931776341
 20
100.6674300546148
 30
0.0
 10
127.7515874456887
 20
100.6673396316045
 30
0.0
 10
127.7863905911295
 20
100.6672472777165
 30
0.0
 10
127.8185180208828
 20
100.6671542909122
 30
0.0
 10
127.8479851418665
 20
100.6670619674749
 30
0.0
 10
127.874807360998
 20
100.6669716037954
 30
0.0
 10
127.8990000851909
 20
100.6668844949584
 30
0.0
 10
127.9205787213553
 20
100.6668019370107
 30
0.0
 10
127.939558676389
 20
100.6667252182604
 30
0.0
 10
127.9613235887362
 20
100.6666328636216
 30
0.0
 10
127.9859025115288
 20
100.6665217293226
 30
0.0
 10
128.0133532541062
 20
100.6663866616726
 30
0.0
 10
128.0383941970528
 20
100.6662529558155
 30
0.0
 10
128.0611270497098
 20
100.6661215330947
 30
0.0
 10
128.0816535214648
 20
100.665993322038
 30
0.0
 10
128.1000753216769
 20
100.6658692488718
 30
0.0
 10
128.1164941596928
 20
100.6657502393956
 30
0.0
 10
128.1310117448236
 20
100.6656372185933
 30
0.0
 10
128.1437297863814
 20
100.6655311091567
 30
0.0
 10
128.1547499935342
 20
100.6654328344264
 30
0.0
 10
128.1641740756978
 20
100.6653433064351
 30
0.0
 10
128.173320205714
 20
100.6652512065276
 30
0.0
 10
128.1828071709
 20
100.6651493204191
 30
0.0
 10
128.1931154852321
 20
100.6650286191993
 30
0.0
 10
128.2033710699496
 20
100.6648961678856
 30
0.0
 10
128.2132607253327
 20
100.6647510983667
 30
0.0
 10
128.2224721645
 20
100.6645993919998
 30
0.0
 10
128.2306901691062
 20
100.6644254597887
 30
0.0
 10
128.237608607733
 20
100.6642812001572
 30
0.0
 10
128.2428967997934
 20
100.6640365297066
 30
0.0
 10
128.2462854455829
 20
100.6640014162261
 30
0.0
 10
128.2478334537511
 20
100.6637124690171
 30
0.0
 10
128.2482414650405
 20
100.663636316937
 30
0.0
 11
127.2482414650405
 21
100.667929949155
 31
0.0
 11
127.2910658854288
 21
100.6679259515942
 31
0.0
 11
127.3321544353225
 21
100.6679145704574
 31
0.0
 11
127.3714358193857
 21
100.6678967230644
 31
0.0
 11
127.4088387422822
 21
100.6678733267347
 31
0.0
 11
127.444291908676
 21
100.6678452987879
 31
0.0
 11
127.4777240232309
 21
100.6678135565438
 31
0.0
 11
127.5090637906109
 21
100.6677790173219
 31
0.0
 11
127.5382399154798
 21
100.6677425984419
 31
0.0
 11
127.5651811025018
 21
100.6677052172235
 31
0.0
 11
127.5898160563404
 21
100.6676677909862
 31
0.0
 11
127.6120734816598
 21
100.6676312370497
 31
0.0
 11
127.6318820831239
 21
100.6675964727336
 31
0.0
 11
127.6747996808878
 21
100.6675136996422
 31
0.0
 11
127.7149953423694
 21
100.6674264062679
 31
0.0
 11
127.7524844744966
 21
100.6673358902433
 31
0.0
 11
127.787282484197
 21
100.6672434492009
 31
0.0
 11
127.8194047783987
 21
100.6671503807735
 31
0.0
 11
127.8488667640293
 21
100.6670579825934
 31
0.0
 11
127.8756838480167
 21
100.6669675522934
 31
0.0
 11
127.8998714372889
 21
100.6668803875061
 31
0.0
 11
127.9214449387735
 21
100.6667977858639
 31
0.0
 11
127.9404197593985
 21
100.6667210449995
 31
0.0
 11
127.9568113060917
 21
100.6666514625455
 31
0.0
 11
127.9867396532585
 21
100.666515857663
 31
0.0
 11
128.0141564914747
 21
100.6663806962787
 31
0.0
 11
128.0391635301715
 21
100.6662469080541
 31
0.0
 11
128.0618624787803
 21
100.6661154226511
 31
0.0
 11
128.0823550467324
 21
100.6659871697314
 31
0.0
 11
128.1007429434592
 21
100.6658630789566
 31
0.0
 11
128.1171278783919
 21
100.6657440799886
 31
0.0
 11
128.1316115609621
 21
100.6656311024889
 31
0.0
 11
128.1442957006008
 21
100.6655250761195
 31
0.0
 11
128.1552820067396
 21
100.6654269305418
 31
0.0
 11
128.1646721888098
 21
100.6653375954177
 31
0.0
 11
128.1725679562426
 21
100.6652580004089
 31
0.0
 11
128.1827203727889
 21
100.6651486229151
 31
0.0
 11
128.1931330068662
 21
100.6650263059774
 31
0.0
 11
128.2034928547614
 21
100.6648915026496
 31
0.0
 11
128.2134869127617
 21
100.6647446659852
 31
0.0
 11
128.2228021771539
 21
100.664586249038
 31
0.0
 11
128.2311256442251
 21
100.6644167048616
 31
0.0
 11
128.2381443102624
 21
100.6642364865097
 31
0.0
 11
128.2435451715527
 21
100.6640460470358
 31
0.0
 11
128.247015224383
 21
100.6638458394937
 31
0.0
 11
128.2482414650405
 21
100.663636316937
 31
0.0
  0
SPLINE
  5
295
330
1F
100
AcDbEntity
  8
0
  6
Continuous
 62
     7
100
AcDbSpline
210
0.0
220
0.0
230
1.0
 70
     8
 71
     3
 72
    31
 73
    27
 74
    25
 42
0.000000001
 43
0.0000000001
 44
0.00000001
 40
0.0
 40
0.0
 40
0.0
 40
0.0
 40
0.6433812285693242
 40
1.349342748134899
 40
1.773254579039073
 40
2.260879067814332
 40
2.666101337509892
 40
3.152380053526383
 40
3.905763355702141
 40
4.647497037741863
 40
5.029090432994198
 40
5.368074238683078
 40
5.692475219939388
 40
6.069251754542542
 40
6.435985418101731
 40
6.75058311894554
 40
7.062479826626288
 40
7.406868497589863
 40
8.021551917413907
 40
8.62499046580378
 40
8.921325083320156
 40
9.179345460501471
 40
9.454102326975866
 40
9.695736485104067
 40
10.20121716149014
 40
10.60792342238283
 40
10.60792342238283
 40
10.60792342238283
 40
10.60792342238283
 10
110.9962046242187
 20
106.7825269575308
 30
0.0
 10
111.2110981061596
 20
106.7983812169867
 30
0.0
 10
111.6617872866945
 20
106.8316318669308
 30
0.0
 10
112.2190372769948
 20
107.0519779377709
 30
0.0
 10
112.6917322226068
 20
107.3107753939571
 30
0.0
 10
113.0557573510032
 20
107.5575342580258
 30
0.0
 10
113.4177623549239
 20
107.8411176327434
 30
0.0
 10
113.8294817773978
 20
108.2037023385166
 30
0.0
 10
114.2965032623041
 20
108.6714754403084
 30
0.0
 10
114.7116591991544
 20
109.1398298648106
 30
0.0
 10
115.0211560242117
 20
109.5164525671233
 30
0.0
 10
115.2361631304271
 20
109.7905360650742
 30
0.0
 10
115.4446403369174
 20
110.06760413435
 30
0.0
 10
115.6526889714849
 20
110.3564855793721
 30
0.0
 10
115.8524271683753
 20
110.6472162444256
 30
0.0
 10
116.0341983984066
 20
110.9239543745311
 30
0.0
 10
116.2064832008884
 20
111.1979392522648
 30
0.0
 10
116.4241150682543
 20
111.5614624248115
 30
0.0
 10
116.6762402914672
 20
112.0174308995055
 30
0.0
 10
116.8972850133156
 20
112.4716353165215
 30
0.0
 10
117.0488877364618
 20
112.8266327450478
 30
0.0
 10
117.1483349982629
 20
113.0845321804908
 30
0.0
 10
117.2319192456355
 20
113.3289141418102
 30
0.0
 10
117.3267985078087
 20
113.6559321973772
 30
0.0
 10
117.4111946288412
 20
114.0331995045761
 30
0.0
 10
117.4234001912941
 20
114.3374773126062
 30
0.0
 10
117.4288421421464
 20
114.4731421471306
 30
0.0
 11
110.9962046242187
 21
106.7825269575308
 31
0.0
 11
111.6348251806756
 21
106.8606498929317
 31
0.0
 11
112.2979617453588
 21
107.1027894529233
 31
0.0
 11
112.6700014789448
 21
107.3059831441688
 31
0.0
 11
113.0748183719414
 21
107.5778303887942
 31
0.0
 11
113.3942414377053
 21
107.8271775212417
 31
0.0
 11
113.759839795562
 21
108.1478094438553
 31
0.0
 11
114.2937488573272
 21
108.6793426154432
 31
0.0
 11
114.7866426142176
 21
109.2336210638307
 31
0.0
 11
115.0289827606276
 21
109.5283832941841
 31
0.0
 11
115.2382412021839
 21
109.795068361118
 31
0.0
 11
115.4333009200303
 21
110.0542742694274
 31
0.0
 11
115.6534905311235
 21
110.3600145054266
 31
0.0
 11
115.8611320787257
 21
110.6623033861765
 31
0.0
 11
116.033814520223
 21
110.925271991856
 31
0.0
 11
116.1997956737972
 21
111.1893360233335
 31
0.0
 11
116.3766105970186
 21
111.4848695059842
 31
0.0
 11
116.6732771885419
 21
112.0232231437398
 31
0.0
 11
116.9360320801619
 21
112.5664523291166
 31
0.0
 11
117.0521626642076
 21
112.8390837521207
 31
0.0
 11
117.1448265892175
 21
113.0798905458781
 31
0.0
 11
117.2332891076825
 21
113.3400168967141
 31
0.0
 11
117.3007609048844
 21
113.5720397898853
 31
0.0
 11
117.4016790136814
 21
114.0673439964988
 31
0.0
 11
117.4288421421464
 21
114.4731421471306
 31
0.0
  0
SPLINE
  5
296
330
1F
100
AcDbEntity
  8
0
  6
Continuous
 62
     7
100
AcDbSpline
210
0.0
220
0.0
230
1.0
 70
     8
 71
     3
 72
    11
 73
     7
 74
     5
 42
0.000000001
 43
0.0000000001
 44
0.00000001
 40
0.0
 40
0.0
 40
0.0
 40
0.0
 40
2.407623954485254
 40
4.44539681899359
 40
6.189286419909123
 40
7.771788200083663
 40
7.771788200083663
 40
7.771788200083663
 40
7.771788200083663
 10
109.1582704976592
 20
106.7825269575308
 30
0.0
 10
109.8123675190596
 20
106.3131393627012
 30
0.0
 10
111.0200813700603
 20
105.4464699055293
 30
0.0
 10
112.4102818326996
 20
103.9104752673876
 30
0.0
 10
113.316129767707
 20
102.3165578788018
 30
0.0
 10
113.4040968843192
 20
101.1994054878396
 30
0.0
 10
113.4459464683358
 20
100.667929949155
 30
0.0
 11
109.1582704976592
 21
106.7825269575308
 31
0.0
 11
111.0591924279084
 21
105.3049786817229
 31
0.0
 11
112.4150817951952
 21
103.7837678866617
 31
0.0
 11
113.2131713619517
 21
102.2332183070397
 31
0.0
 11
113.4459464683358
 21
100.667929949155
 31
0.0
  0
SPLINE
  5
297
330
1F
100
AcDbEntity
  8
0
  6
Continuous
 62
     7
100
AcDbSpline
210
0.0
220
0.0
230
1.0
 70
     8
 71
     3
 72
    13
 73
     9
 74
     7
 42
0.000000001
 43
0.0000000001
 44
0.00000001
 40
0.0
 40
0.0
 40
0.0
 40
0.0
 40
0.4037369400159092
 40
0.7910156329273407
 40
1.148795061098155
 40
1.46966459002138
 40
1.755233073100705
 40
2.018898055308631
 40
2.018898055308631
 40
2.018898055308631
 40
2.018898055308631
 10
73.71836639189729
 20
87.16792994915505
 30
0.0
 10
73.85312954633525
 20
87.16150581888611
 30
0.0
 10
74.11716226387773
 20
87.1489194244462
 30
0.0
 10
74.48950742915898
 20
87.04812150222065
 30
0.0
 10
74.81257591026753
 20
86.89328931355183
 30
0.0
 10
75.0619789010299
 20
86.68733048347517
 30
0.0
 10
75.23247067586014
 20
86.44069045508729
 30
0.0
 10
75.25356392531343
 20
86.25640028017821
 30
0.0
 10
75.26368994271598
 20
86.16792994915505
 30
0.0
 11
73.71836639189729
 21
87.16792994915505
 31
0.0
 11
74.12066285636863
 21
87.13385551792274
 31
0.0
 11
74.49483493254417
 21
87.03395535293954
 31
0.0
 11
74.81538279395349
 21
86.87503654182291
 31
0.0
 11
75.06046260921022
 21
86.66792994915511
 31
0.0
 11
75.21337132695737
 21
86.42674892525494
 31
0.0
 11
75.26368994271598
 21
86.16792994915505
 31
0.0
  0
SPLINE
  5
298
330
1F
100
AcDbEntity
  8
0
  6
Continuous
 62
     7
100
AcDbSpline
210
0.0
220
0.0
230
1.0
 70
     8
 71
     3
 72
    13
 73
     9
 74
     7
 42
0.000000001
 43
0.0000000001
 44
0.00000001
 40
0.0
 40
0.0
 40
0.0
 40
0.0
 40
0.2591159563854036
 40
0.5030224664645853
 40
0.7180545688554563
 40
0.8939449581274621
 40
1.026933104639945
 40
1.127108740757903
 40
1.127108740757903
 40
1.127108740757903
 40
1.127108740757903
 10
107.9982414650405
 20
86.16792994915505
 30
0.0
 10
108.0005458728963
 20
86.25436604643127
 30
0.0
 10
108.0050194215473
 20
86.42216466227482
 30
0.0
 10
108.0409336209837
 20
86.65906153954387
 30
0.0
 10
108.0953426098394
 20
86.865280163348
 30
0.0
 10
108.1674797031183
 20
87.02236386638691
 30
0.0
 10
108.2517354137128
 20
87.13981603632432
 30
0.0
 10
108.3290112067611
 20
87.15948111989887
 30
0.0
 10
108.3622116993066
 20
87.16792994915505
 30
0.0
 11
107.9982414650405
 21
86.16792994915505
 31
0.0
 11
108.0106435437586
 21
86.42674892525496
 31
0.0
 11
108.0470042302107
 21
86.66792994915511
 31
0.0
 11
108.104845947122
 21
86.8750365418229
 31
0.0
 11
108.1802265821733
 21
87.03395535293954
 31
0.0
 11
108.2680092959429
 21
87.13385551792274
 31
0.0
 11
108.3622116993066
 21
87.16792994915505
 31
0.0
  0
SPLINE
  5
299
330
1F
100
AcDbEntity
  8
0
  6
Continuous
 62
     7
100
AcDbSpline
210
0.0
220
0.0
230
1.0
 70
     8
 71
     3
 72
    13
 73
     9
 74
     7
 42
0.000000001
 43
0.0000000001
 44
0.00000001
 40
0.0
 40
0.0
 40
0.0
 40
0.0
 40
0.4037369400161074
 40
0.7910156329275664
 40
1.148795061098367
 40
1.469664590021517
 40
1.755233073100796
 40
2.018898055308717
 40
2.018898055308717
 40
2.018898055308717
 40
2.018898055308717
 10
97.7781165381835
 20
87.16792994915505
 30
0.0
 10
97.64335338374545
 20
87.16150581888607
 30
0.0
 10
97.37932066620294
 20
87.14891942444623
 30
0.0
 10
97.00697550092157
 20
87.04812150222064
 30
0.0
 10
96.68390701981305
 20
86.89328931355185
 30
0.0
 10
96.43450402905073
 20
86.68733048347517
 30
0.0
 10
96.26401225422063
 20
86.44069045508726
 30
0.0
 10
96.24291900476736
 20
86.25640028017823
 30
0.0
 10
96.2327929873648
 20
86.16792994915505
 30
0.0
 11
97.7781165381835
 21
87.16792994915505
 31
0.0
 11
97.37582007371196
 21
87.13385551792274
 31
0.0
 11
97.0016479975364
 21
87.03395535293954
 31
0.0
 11
96.68110013612709
 21
86.87503654182291
 31
0.0
 11
96.43602032087045
 21
86.66792994915511
 31
0.0
 11
96.28311160312339
 21
86.42674892525494
 31
0.0
 11
96.2327929873648
 21
86.16792994915505
 31
0.0
  0
SPLINE
  5
29A
330
1F
100
AcDbEntity
  8
0
  6
Continuous
 62
     7
100
AcDbSpline
210
0.0
220
0.0
230
1.0
 70
     8
 71
     3
 72
    11
 73
     7
 74
     5
 42
0.000000001
 43
0.0000000001
 44
0.00000001
 40
0.0
 40
0.0
 40
0.0
 40
0.0
 40
2.407623954485399
 40
4.445396818993689
 40
6.189286419909219
 40
7.771788200083753
 40
7.771788200083753
 40
7.771788200083753
 40
7.771788200083753
 10
62.3382124324217
 20
106.7825269575308
 30
0.0
 10
61.68411541102128
 20
106.3131393627013
 30
0.0
 10
60.47640156002039
 20
105.4464699055293
 30
0.0
 10
59.08620109738125
 20
103.9104752673876
 30
0.0
 10
58.18035316237382
 20
102.3165578788018
 30
0.0
 10
58.09238604576164
 20
101.1994054878397
 30
0.0
 10
58.05053646174503
 20
100.667929949155
 30
0.0
 11
62.3382124324217
 21
106.7825269575308
 31
0.0
 11
60.43729050217232
 21
105.3049786817229
 31
0.0
 11
59.08140113488554
 21
103.7837678866617
 31
0.0
 11
58.28331156812908
 21
102.2332183070397
 31
0.0
 11
58.05053646174503
 21
100.667929949155
 31
0.0
  0
SPLINE
  5
29B
330
1F
100
AcDbEntity
  8
0
  6
Continuous
 62
     7
100
AcDbSpline
210
0.0
220
0.0
230
1.0
 70
     8
 71
     3
 72
    48
 73
    44
 74
    42
 42
0.000000001
 43
0.0000000001
 44
0.00000001
 40
0.0
 40
0.0
 40
0.0
 40
0.0
 40
0.0428244222511606
 40
0.0839129743752201
 40
0.1231943630407293
 40
0.1605972936825321
 40
0.1960504714504351
 40
0.2294826012245127
 40
0.2608223876301729
 40
0.2899985350524668
 40
0.3169397476495183
 40
0.3415747293655638
 40
0.3638321839431857
 40
0.3836408149361163
 40
0.4050002796191753
 40
0.4287725988760113
 40
0.454698799469276
 40
0.4825199085025291
 40
0.5119769534849259
 40
0.5428109624100586
 40
0.574762963853867
 40
0.6075739870980875
 40
0.6409850622874778
 40
0.6747372206336595
 40
0.7085714946821093
 40
0.7423074406350103
 40
0.774211301864898
 40
0.8042325800178814
 40
0.8323207781789504
 40
0.8584254013997211
 40
0.8824959574797561
 40
0.9044819581630696
 40
0.9243329210482218
 40
0.9344859161765564
 40
0.9448992625132477
 40
0.9552599849309295
 40
0.9652551219683345
 40
0.9745717357980745
 40
0.9828969332669468
 40
0.9899179170134365
 40
0.9953221389225516
 40
0.9987979655681768
 40
1.000041979304918
 40
1.000041979304918
 40
1.000041979304918
 40
1.000041979304918
 10
44.24824146504039
 20
100.667929949155
 30
0.0
 10
44.2339666576021
 20
100.6679291836533
 30
0.0
 10
44.20599566610075
 20
100.6679276980711
 30
0.0
 10
44.16493087977078
 20
100.667915901775
 30
0.0
 10
44.12567325980765
 20
100.6678981864788
 30
0.0
 10
44.08829410124308
 20
100.6678747934939
 30
0.0
 10
44.05286469941805
 20
100.6678468083093
 30
0.0
 10
44.01945634967423
 20
100.6678151056128
 30
0.0
 10
43.98814034735389
 20
100.6677806122375
 30
0.0
 10
43.95898798780063
 20
100.6677442419702
 30
0.0
 10
43.93207056635872
 20
100.6677069114752
 30
0.0
 10
43.90745937837458
 20
100.6676695361802
 30
0.0
 10
43.88522571919486
 20
100.6676330311017
 30
0.0
 10
43.86408390162872
 20
100.6675959281204
 30
0.0
 10
43.84243713428576
 20
100.667555536245
 30
0.0
 10
43.81875118646275
 20
100.6675083022836
 30
0.0
 10
43.79291136927319
 20
100.667452985766
 30
0.0
 10
43.76517665797947
 20
100.6673890404032
 30
0.0
 10
43.7358060278339
 20
100.6673159200818
 30
0.0
 10
43.70505845407517
 20
100.6672330787666
 30
0.0
 10
43.6731929119226
 20
100.6671399712065
 30
0.0
 10
43.6404683765697
 20
100.6670360531376
 30
0.0
 10
43.60714382317238
 20
100.666920782415
 30
0.0
 10
43.57347822684143
 20
100.6667936171461
 30
0.0
 10
43.5397043888301
 20
100.6666539174377
 30
0.0
 10
43.50654670318912
 20
100.6665032065846
 30
0.0
 10
43.47466007348085
 20
100.6663434891202
 30
0.0
 10
43.44465608431414
 20
100.6661776727521
 30
0.0
 10
43.41658524024002
 20
100.6660061130667
 30
0.0
 10
43.39049804552539
 20
100.6658291737789
 30
0.0
 10
43.36644500416865
 20
100.6656472320087
 30
0.0
 10
43.34447661911513
 20
100.6654606720167
 30
0.0
 10
43.32714743035458
 20
100.6652940179692
 30
0.0
 10
43.31367576840901
 20
100.6651493171122
 30
0.0
 10
43.30336746034257
 20
100.6650286203035
 30
0.0
 10
43.293111878411
 20
100.6648961678814
 30
0.0
 10
43.28322222288742
 20
100.6647510986623
 30
0.0
 10
43.27401078149779
 20
100.6645993921869
 30
0.0
 10
43.26579277336039
 20
100.6644254598987
 30
0.0
 10
43.25887433067126
 20
100.6642812001619
 30
0.0
 10
43.25358613483196
 20
100.664036529447
 30
0.0
 10
43.25019748624882
 20
100.6640014159508
 30
0.0
 10
43.2486494767206
 20
100.6637124683184
 30
0.0
 10
43.24824146504039
 20
100.6636363161206
 30
0.0
 11
44.24824146504039
 21
100.667929949155
 31
0.0
 11
44.20541704389908
 21
100.667925951594
 31
0.0
 11
44.16432849334839
 21
100.6679145704569
 31
0.0
 11
44.12504710873667
 21
100.6678967230632
 31
0.0
 11
44.08764418541219
 21
100.6678733267329
 31
0.0
 11
44.05219101872331
 21
100.6678452987854
 31
0.0
 11
44.01875890401834
 21
100.6678135565407
 31
0.0
 11
43.98741913664561
 21
100.6677790173184
 31
0.0
 11
43.95824301195341
 21
100.6677425984382
 31
0.0
 11
43.93130182529012
 21
100.6677052172199
 31
0.0
 11
43.90666687200398
 21
100.6676677909831
 31
0.0
 11
43.8844094474434
 21
100.6676312370476
 31
0.0
 11
43.86460084695665
 21
100.6675964727332
 31
0.0
 11
43.84324141949951
 21
100.6675565949894
 31
0.0
 11
43.81946914755177
 21
100.6675091685138
 31
0.0
 11
43.79354300642278
 21
100.6674536407319
 31
0.0
 11
43.7657219714219
 21
100.6673894590697
 31
0.0
 11
43.73626501785849
 21
100.6673160709528
 31
0.0
 11
43.70543112104191
 21
100.6672329238069
 31
0.0
 11
43.67347925628155
 21
100.667139465058
 31
0.0
 11
43.6406683988867
 21
100.6670351421316
 31
0.0
 11
43.6072575241668
 21
100.6669194024536
 31
0.0
 11
43.57350560743114
 21
100.6667916934496
 31
0.0
 11
43.53967162398914
 21
100.6666514625455
 31
0.0
 11
43.50593602826338
 21
100.6664977413217
 31
0.0
 11
43.47403256945315
 21
100.666337500391
 31
0.0
 11
43.44401175259456
 21
100.6661710765292
 31
0.0
 11
43.41592408272362
 21
100.6659988065122
 31
0.0
 11
43.38982006487644
 21
100.6658210271158
 31
0.0
 11
43.36575020408905
 21
100.6656380751159
 31
0.0
 11
43.34376500539751
 21
100.6654502872883
 31
0.0
 11
43.32391497383793
 21
100.6652580004089
 31
0.0
 11
43.31376256788861
 21
100.6651486230338
 31
0.0
 11
43.30334993996023
 21
100.665026306179
 31
0.0
 11
43.29299009455075
 21
100.6648915028949
 31
0.0
 11
43.2829960361581
 21
100.6647446662321
 31
0.0
 11
43.27368076928022
 21
100.6645862492407
 31
0.0
 11
43.26535729841505
 21
100.6644167049712
 31
0.0
 11
43.25833862806056
 21
100.6642364864742
 31
0.0
 11
43.25293776271465
 21
100.6640460467997
 31
0.0
 11
43.24946770687528
 21
100.6638458389984
 31
0.0
 11
43.24824146504039
 21
100.6636363161206
 31
0.0
  0
SPLINE
  5
29C
330
1F
100
AcDbEntity
  8
0
  6
Continuous
 62
     7
100
AcDbSpline
210
0.0
220
0.0
230
1.0
 70
     8
 71
     3
 72
    35
 73
    31
 74
    29
 42
0.000000001
 43
0.0000000001
 44
0.00000001
 40
0.0
 40
0.0
 40
0.0
 40
0.0
 40
0.6433812285680658
 40
1.349342748134968
 40
1.773254579014669
 40
2.260879067814343
 40
2.666101337577057
 40
3.152380053526009
 40
3.497489552502672
 40
3.907487638800069
 40
4.245399055374904
 40
4.647675329387669
 40
4.978122603287635
 40
5.368252587715204
 40
5.718894124502012
 40
6.069430301911606
 40
6.38849845205728
 40
6.750761633249209
 40
7.079982514318874
 40
7.407047197506855
 40
7.744293081022869
 40
8.03336428511554
 40
8.324339074735787
 40
8.62527895903796
 40
8.921613576579674
 40
9.179633953735577
 40
9.454390820041086
 40
9.6960249783383
 40
10.20150565471694
 40
10.60821191563648
 40
10.60821191563648
 40
10.60821191563648
 40
10.60821191563648
 10
60.50027830586356
 20
106.7825269575307
 30
0.0
 10
60.28538483993432
 20
106.798381217163
 30
0.0
 10
59.83469569297907
 20
106.8316318674764
 30
0.0
 10
59.27744546916269
 20
107.0519779357399
 30
0.0
 10
58.80475112122673
 20
107.3107753985135
 30
0.0
 10
58.44072387309798
 20
107.5575342392257
 30
0.0
 10
58.0787261704784
 20
107.8411176944424
 30
0.0
 10
57.76917075541468
 20
108.113705585152
 30
0.0
 10
57.47068712468234
 20
108.4003775170353
 30
0.0
 10
57.21673845094212
 20
108.6617491867026
 30
0.0
 10
56.95789348949481
 20
108.9446256411556
 30
0.0
 10
56.72414240333254
 20
109.214364663165
 30
0.0
 10
56.4860080011245
 20
109.5031551961073
 30
0.0
 10
56.26516123071204
 20
109.7837869700357
 30
0.0
 10
56.04666124947138
 20
110.0746552956583
 30
0.0
 10
55.84811576497312
 20
110.3507943760839
 30
0.0
 10
55.65293444679551
 20
110.6340320450924
 30
0.0
 10
55.46756486947358
 20
110.9153260464967
 30
0.0
 10
55.28697870064607
 20
111.2028624105337
 30
0.0
 10
55.11702408085309
 20
111.4871371151696
 30
0.0
 10
54.96048953817316
 20
111.7637456805631
 30
0.0
 10
54.81650094474583
 20
112.0335161017779
 30
0.0
 10
54.68476732478666
 20
112.296012125272
 30
0.0
 10
54.55958381744271
 20
112.5643794475472
 30
0.0
 10
54.44759624117648
 20
112.8266342576144
 30
0.0
 10
54.3481476477813
 20
113.0845317703079
 30
0.0
 10
54.26456375045074
 20
113.3289142370383
 30
0.0
 10
54.16968438425344
 20
113.6559321424086
 30
0.0
 10
54.08528831071296
 20
114.0331995182691
 30
0.0
 10
54.07308274171023
 20
114.3374773168389
 30
0.0
 10
54.06764078793464
 20
114.4731421471513
 30
0.0
 11
60.50027830586356
 21
106.7825269575307
 31
0.0
 11
59.86165774940514
 21
106.8606498929318
 31
0.0
 11
59.19852118472187
 21
107.1027894529233
 31
0.0
 11
58.82648145115692
 21
107.3059831441561
 31
0.0
 11
58.42166455813941
 21
107.5778303887943
 31
0.0
 11
58.1022414923236
 21
107.8271775212846
 31
0.0
 11
57.73664313451883
 21
108.1478094438553
 31
0.0
 11
57.48756785643184
 21
108.3866861314091
 31
0.0
 11
57.20162870315045
 21
108.6805181089426
 31
0.0
 11
56.97341472518204
 21
108.9297218518332
 31
0.0
 11
56.70984031586323
 21
109.2336210638307
 31
0.0
 11
56.49956194678962
 21
109.4885296908056
 31
0.0
 11
56.25824172789663
 21
109.795068361118
 31
0.0
 11
56.04762437836943
 21
110.0754071189661
 31
0.0
 11
55.84299239895705
 21
110.3600145054266
 31
0.0
 11
55.66195955502229
 21
110.6227531467581
 31
0.0
 11
55.46266840985783
 21
110.925271991856
 31
0.0
 11
55.28762636657515
 21
111.2041028929286
 31
0.0
 11
55.11987233306201
 21
111.4848695059842
 31
0.0
 11
54.9538904227582
 21
111.7784419692051
 31
0.0
 11
54.81787181200895
 21
112.0335127405381
 31
0.0
 11
54.68748709858247
 21
112.2936399296579
 31
0.0
 11
54.56045084991871
 21
112.5664523291166
 31
0.0
 11
54.44432026586352
 21
112.8390837521443
 31
0.0
 11
54.35165634086303
 21
113.0798905458781
 31
0.0
 11
54.26319382244898
 21
113.340016896553
 31
0.0
 11
54.19572202519618
 21
113.5720397898853
 31
0.0
 11
54.09480391640038
 21
114.0673439964931
 31
0.0
 11
54.06764078793464
 21
114.4731421471513
 31
0.0
  0
SPLINE
  5
29D
330
1F
100
AcDbEntity
  8
0
  6
Continuous
 62
     7
100
AcDbSpline
210
0.0
220
0.0
230
1.0
 70
     8
 71
     3
 72
    13
 73
     9
 74
     7
 42
0.000000001
 43
0.0000000001
 44
0.00000001
 40
0.0
 40
0.0
 40
0.0
 40
0.0
 40
0.2591159563854044
 40
0.5030224664645881
 40
0.7180545688554975
 40
0.8939449581275216
 40
1.026933104639925
 40
1.127108740757842
 40
1.127108740757842
 40
1.127108740757842
 40
1.127108740757842
 10
63.49824146504039
 20
86.16792994915505
 30
0.0
 10
63.49593705718463
 20
86.25436604643129
 30
0.0
 10
63.49146350853354
 20
86.42216466227477
 30
0.0
 10
63.45554930909725
 20
86.65906153954388
 30
0.0
 10
63.40114032024132
 20
86.86528016334802
 30
0.0
 10
63.32900322696239
 20
87.02236386638685
 30
0.0
 10
63.24474751636798
 20
87.13981603632433
 30
0.0
 10
63.16747172331966
 20
87.15948111989886
 30
0.0
 10
63.13427123077423
 20
87.16792994915505
 30
0.0
 11
63.49824146504039
 21
86.16792994915505
 31
0.0
 11
63.48583938632228
 21
86.42674892525496
 31
0.0
 11
63.4494786998701
 21
86.66792994915511
 31
0.0
 11
63.39163698295867
 21
86.8750365418229
 31
0.0
 11
63.31625634790731
 21
87.03395535293954
 31
0.0
 11
63.22847363413786
 21
87.13385551792274
 31
0.0
 11
63.13427123077423
 21
87.16792994915505
 31
0.0
  0
SPLINE
  5
29E
330
1F
100
AcDbEntity
  8
0
  6
Continuous
 62
     7
100
AcDbSpline
210
0.0
220
0.0
230
1.0
 70
     8
 71
     3
 72
    11
 73
     7
 74
     5
 42
0.000000001
 43
0.0000000001
 44
0.00000001
 40
0.0
 40
0.0
 40
0.0
 40
0.0
 40
0.1126067740736059
 40
0.2241631912649867
 40
0.3337510563919039
 40
0.4407092467493484
 40
0.4407092467493484
 40
0.4407092467493484
 40
0.4407092467493484
 10
235.8312052784592
 20
151.1679299491536
 30
0.0
 10
235.8688008882053
 20
151.1661138718412
 30
0.0
 10
235.9436414274569
 20
151.1624986421547
 30
0.0
 10
236.0516222698081
 20
151.1330158409538
 30
0.0
 10
236.1523691131842
 20
151.0884052744564
 30
0.0
 10
236.2098244876078
 20
151.0443318840518
 30
0.0
 10
236.2382033096198
 20
151.0225627902354
 30
0.0
 11
235.8312052784592
 21
151.1679299491536
 31
0.0
 11
235.9434078116146
 21
151.1583969923875
 31
0.0
 11
236.0513318775778
 21
151.1301617203144
 31
0.0
 11
236.150862114131
 21
151.0843007062797
 31
0.0
 11
236.2382033096198
 21
151.0225627902354
 31
0.0
  0
ARC
  5
29F
102
{ACAD_REACTORS
330
311
102
}
330
1F
100
AcDbEntity
  8
1
  6
Continuous
 62
     7
100
AcDbCircle
 10
281.3429673554093
 20
10.07749983983263
 30
0.0
 40
0.3333333333332007
100
AcDbArc
 50
180.0
 51
299.9816393688419
  0
ARC
  5
2A0
102
{ACAD_REACTORS
330
311
102
}
330
1F
100
AcDbEntity
  8
1
  6
Continuous
 62
     7
100
AcDbCircle
 10
281.3429673554093
 20
14.92250016016737
 30
0.0
 40
0.3333333333333456
100
AcDbArc
 50
60.01836063115814
 51
180.0
  0
ARC
  5
2A1
330
1F
100
AcDbEntity
  8
1
  6
Continuous
 62
     7
100
AcDbCircle
 10
287.0094488883026
 20
12.5
 30
0.0
 40
0.1666666666666302
100
AcDbArc
 50
299.9816393688164
 51
60.01836063116308
  0
ARC
  5
2A2
330
1F
100
AcDbEntity
  8
1
  6
Continuous
 62
     7
100
AcDbCircle
 10
270.3431524891828
 20
12.5
 30
0.0
 40
0.1666666666666123
100
AcDbArc
 50
119.9816393688877
 51
240.0183606311327
  0
ARC
  5
2A3
102
{ACAD_REACTORS
330
313
102
}
330
1F
100
AcDbEntity
  8
1
  6
Continuous
 62
     7
100
AcDbCircle
 10
276.3429673554093
 20
10.2700211480327
 30
0.0
 40
0.6666666666666288
100
AcDbArc
 50
180.0000000000104
 51
240.018360631158
  0
ARC
  5
2A4
102
{ACAD_REACTORS
330
314
102
}
330
1F
100
AcDbEntity
  8
1
  6
Continuous
 62
     7
100
AcDbCircle
 10
278.6763006887427
 20
12.83333333333326
 30
0.0
 40
0.166666666666709
100
AcDbArc
 50
209.9999999999622
 51
330.000000000028
  0
SOLID
  5
2A5
330
1F
100
AcDbEntity
  8
1
 62
     7
100
AcDbTrace
 10
112.5324498921715
 20
81.98295110741128
 30
0.0
 11
112.1308851982912
 21
81.30272211583214
 31
0.0
 12
109.7482414650403
 22
83.16792994915505
 32
0.0
 13
109.7482414650403
 23
83.16792994915505
 33
0.0
  0
LEADER
  5
2A6
330
1F
100
AcDbEntity
  8
1
  6
Continuous
 62
     7
100
AcDbLeader
  3
Standard
 71
     0
 76
     3
 10
109.7482414650403
 20
83.16792994915505
 30
0.0
 10
138.5453270481959
 20
66.16792994915505
 30
0.0
 10
157.9817443396429
 20
66.16792994915505
 30
0.0
  0
MTEXT
  5
2A8
330
1F
100
AcDbEntity
  8
1
 62
     7
100
AcDbMText
 10
256.6763006887427
 20
16.26063942075598
 30
0.0
 40
3.0
 41
0.0
 71
     5
 72
     1
  1
Scale
  7
CONVERTER_11
 73
     1
 44
1.32052821128451
  0
MTEXT
  5
2A9
330
1F
100
AcDbEntity
  8
1
 62
     7
100
AcDbMText
 10
151.4999999999997
 20
194.0000000000001
 30
0.0
 40
4.0
 41
0.0
 71
     5
 72
     1
  1
Diritti riservati      All rights reserved
  7
CONVERTER_11
 73
     1
 44
1.32052821128451
  0
MTEXT
  5
2AB
330
1F
100
AcDbEntity
  8
1
 62
     7
100
AcDbMText
 10
123.0
 20
17.49999999999994
 30
0.0
 40
2.5
 41
0.0
 71
     5
 72
     1
  1
dimensions in mm
  7
CONVERTER_12
 73
     1
 44
0.60024009603842
  0
MTEXT
  5
2AC
330
1F
100
AcDbEntity
  8
1
 62
     7
100
AcDbMText
 10
109.0
 20
12.49999999999987
 30
0.0
 40
3.0
 41
0.0
 71
     4
 72
     1
  1
Date
  7
CONVERTER_11
 73
     1
 44
1.32052821128451
  0
MTEXT
  5
2AD
330
1F
100
AcDbEntity
  8
1
 62
     7
100
AcDbMText
 10
109.0
 20
7.49999999999987
 30
0.0
 40
3.0
 41
0.0
 71
     4
 72
     1
  1
Sign.
  7
CONVERTER_11
 73
     1
 44
1.32052821128451
  0
MTEXT
  5
2AF
330
1F
100
AcDbEntity
  8
1
 62
     7
100
AcDbMText
 10
224.5982613630005
 20
113.816779056354
 30
0.0
 40
3.5
 41
0.0
 71
     2
 72
     1
  1
 
  7
CONVERTER_13
 73
     1
 44
1.32052821128451
  0
MTEXT
  5
2B0
330
1F
100
AcDbEntity
  8
1
 62
     7
100
AcDbMText
 10
215.4482567783618
 20
78.167929924612
 30
0.0
 40
3.5
 41
0.0
 71
     2
 72
     1
  1
 
  7
CONVERTER_13
 73
     1
 44
1.32052821128451
  0
MTEXT
  5
2B1
330
1F
100
AcDbEntity
  8
1
 62
     7
100
AcDbMText
 10
119.6
 20
12.49999999999987
 30
0.0
 40
3.0
 41
0.0
 71
     4
 72
     1
  1
14/05/15
  7
CONVERTER_11
 73
     1
 44
1.32052821128451
  0
MTEXT
  5
2B2
330
1F
100
AcDbEntity
  8
1
 62
     7
100
AcDbMText
 10
119.6
 20
7.49999999999987
 30
0.0
 40
3.0
 41
0.0
 71
     4
 72
     1
  1
M.Pezzimenti
  7
CONVERTER_11
 73
     1
 44
1.32052821128451
  0
MTEXT
  5
2B3
330
1F
100
AcDbEntity
  8
1
 62
     7
100
AcDbMText
 10
256.6763006887427
 20
10.06063942075605
 30
0.0
 40
4.5
 41
0.0
 71
     5
 72
     1
  1
1:1
  7
CONVERTER_11
 73
     1
 44
1.32052821128451
  0
MTEXT
  5
2B4
330
1F
100
AcDbEntity
  8
1
 62
     7
100
AcDbMText
 10
85.7482412932639
 20
78.167929924612
 30
0.0
 40
3.5
 41
0.0
 71
     2
 72
     1
  1
 
  7
CONVERTER_13
 73
     1
 44
1.32052821128451
  0
MTEXT
  5
2B5
330
1F
100
AcDbEntity
  8
1
 62
     7
100
AcDbMText
 10
143.866157546652
 20
60.64862090926051
 30
0.0
 40
3.5
 41
0.0
 71
     7
 72
     1
  1
\U+00f8 4,5
  7
CONVERTER_13
 73
     1
 44
1.32052821128451
  0
MTEXT
  5
2B6
330
1F
100
AcDbEntity
  8
1
 62
     7
100
AcDbMText
 10
144.2763006887427
 20
12.5
 30
0.0
 40
4.5
 41
0.0
 71
     4
 72
     1
  1
JPP 15 L21\PSurface mounting housing 1 lev. PG21 - JEI
  7
CONVERTER_11
 73
     1
 44
0.90036014405762
  0
DIMENSION
  5
2C3
330
1F
100
AcDbEntity
  8
1
100
AcDbDimension
  2
*D2
 10
253.0077218138219
 20
83.16792994915505
 30
0.0
 11
249.5077218138219
 21
76.40065246154145
 31
0.0
 70
    32
  1
<>
 71
     5
 42
-1.0
 53
90.0
  3
ME10_DIM_10
100
AcDbAlignedDimension
 13
235.4482611510227
 23
87.16792994915505
 33
0.0
 14
238.4482611510227
 24
83.16792994915505
 34
0.0
 50
90.0
100
AcDbRotatedDimension
  0
DIMENSION
  5
2CE
330
1F
100
AcDbEntity
  8
1
100
AcDbDimension
  2
*D3
 10
188.4482611510227
 20
48.16792994915505
 30
0.0
 11
213.4482611510227
 21
51.66792994915505
 31
0.0
 70
    32
  1
<>
 71
     5
 42
-1.0
 53
0.00013888888889
  3
ME10_DIM_11
100
AcDbAlignedDimension
 13
238.4482611510227
 23
83.16792994915505
 33
0.0
 14
188.4482611510227
 24
83.16792994915505
 34
0.0
100
AcDbRotatedDimension
  0
DIMENSION
  5
2D9
330
1F
100
AcDbEntity
  8
1
100
AcDbDimension
  2
*D4
 10
193.4482611510227
 20
66.16792994915505
 30
0.0
 11
213.4482611510227
 21
69.66792994915505
 31
0.0
 70
    32
  1
<>
 71
     5
 42
-1.0
 53
0.00013888888889
  3
ME10_DIM_12
100
AcDbAlignedDimension
 13
233.4482611510227
 23
81.43304114824656
 33
0.0
 14
193.4482611510227
 24
81.14076185028006
 34
0.0
100
AcDbRotatedDimension
  0
DIMENSION
  5
2E4
330
1F
100
AcDbEntity
  8
1
100
AcDbDimension
  2
*D5
 10
61.74824146504028
 20
66.16792994915505
 30
0.0
 11
85.74824146504028
 21
69.66792994915505
 31
0.0
 70
    32
  1
<>
 71
     5
 42
-1.0
 53
0.00013888888889
  3
ME10_DIM_13
100
AcDbAlignedDimension
 13
109.7482414650403
 23
81.77248256380756
 33
0.0
 14
61.74824146504028
 24
81.63398801922085
 34
0.0
100
AcDbRotatedDimension
  0
DIMENSION
  5
2EF
330
1F
100
AcDbEntity
  8
1
100
AcDbDimension
  2
*D6
 10
128.2482414650404
 20
48.16792994915505
 30
0.0
 11
85.7482414650404
 21
51.66792994915505
 31
0.0
 70
    32
  1
<>
 71
     5
 42
-1.0
 53
0.00013888888889
  3
ME10_DIM_14
100
AcDbAlignedDimension
 13
43.24824146504039
 23
84.16792994915505
 33
0.0
 14
128.2482414650405
 24
84.16792994915505
 34
0.0
100
AcDbRotatedDimension
  0
DIMENSION
  5
2FA
330
1F
100
AcDbEntity
  8
1
100
AcDbDimension
  2
*D7
 10
31.28982302015294
 20
113.9979299491551
 30
0.0
 11
27.78982302015294
 21
102.917929949155
 31
0.0
 70
    32
  1
PG21
 71
     5
 42
-1.0
 53
90.0
  3
ME10_DIM_15
100
AcDbAlignedDimension
 13
43.34824146504042
 23
90.83792994915495
 33
0.0
 14
43.34824146504042
 24
113.9979299491551
 34
0.0
 50
90.0
100
AcDbRotatedDimension
  0
DIMENSION
  5
305
330
1F
100
AcDbEntity
  8
1
100
AcDbDimension
  2
*D8
 10
251.4781159335802
 20
167.4854414443494
 30
0.0
 11
219.9631885423015
 21
170.9854414443494
 31
0.0
 70
    32
  1
63
 71
     5
 42
-1.0
 53
0.00013888888889
  3
ME10_DIM_16
100
AcDbAlignedDimension
 13
188.4482611510227
 23
83.16792994915505
 33
0.0
 14
251.4781159335802
 24
125.4679299491551
 34
0.0
100
AcDbRotatedDimension
  0
DIMENSION
  5
310
330
1F
100
AcDbEntity
  8
1
100
AcDbDimension
  2
*D9
 10
262.1107713401809
 20
135.1679299491552
 30
0.0
 11
258.6107713401809
 21
109.1679299491551
 31
0.0
 70
    32
  1
<>
 71
     5
 42
-1.0
 53
90.0
  3
ME10_DIM_17
100
AcDbAlignedDimension
 13
235.4482611510227
 23
83.16792994915505
 33
0.0
 14
214.0261668277061
 24
135.1679299491552
 34
0.0
 50
90.0
100
AcDbRotatedDimension
  0
HATCH
  5
311
330
1F
100
AcDbEntity
  8
1
  6
Continuous
 62
     7
100
AcDbHatch
 10
0.0
 20
0.0
 30
0.0
210
0.0
220
0.0
230
1.0
  2
SOLID
 70
     1
 71
     1
 91
        1
 92
        1
 93
       14
 72
     1
 10
282.5097265375795
 20
13.86454086225376
 11
281.6763006887427
 21
14.34536346735195
 72
     1
 10
281.6763006887427
 20
14.34536346735195
 11
281.6763006887427
 21
12.83333333333326
 72
     1
 10
281.6763006887427
 20
12.83333333333326
 11
282.6763006887427
 21
12.83333333333326
 72
     2
 10
282.6763006887427
 20
12.5
 40
0.3333333333333695
 50
270.0
 51
450.0
 73
     0
 72
     1
 10
282.6763006887427
 20
12.16666666666663
 11
281.6763006887427
 21
12.16666666666663
 72
     1
 10
281.6763006887427
 20
12.16666666666663
 11
281.6763006887427
 21
10.65463653264794
 72
     1
 10
281.6763006887427
 20
10.65463653264794
 11
282.5097265375795
 21
11.13545913774624
 72
     2
 10
282.6763006887427
 20
10.84673060906323
 40
0.3333333333333172
 50
240.0183606311678
 51
420.0183606311667
 73
     0
 72
     1
 10
282.8428748399058
 20
10.55800208038033
 11
281.5095415065725
 21
9.78877131114973
 72
     2
 10
281.3429673554093
 20
10.07749983983263
 40
0.3333333333332007
 50
60.01836063115814
 51
180.0
 73
     0
 72
     1
 10
281.0096340220761
 20
10.07749983983263
 11
281.0096340220761
 21
14.92250016016737
 72
     2
 10
281.3429673554093
 20
14.92250016016737
 40
0.3333333333333456
 50
180.0
 51
299.9816393688419
 73
     0
 72
     1
 10
281.5095415065725
 20
15.21122868885027
 11
282.8428748399058
 21
14.44199791961944
 72
     2
 10
282.6763006887427
 20
14.15326939093666
 40
0.3333333333333471
 50
299.9816393688436
 51
479.9816393688417
 73
     0
 97
       14
330
62
330
2A0
330
79
330
29F
330
5B
330
1F7
330
5C
330
5D
330
5E
330
1F8
330
5F
330
60
330
61
330
1F9
 75
     0
 76
     1
 98
        1
 10
0.0
 20
0.0
  0
HATCH
  5
312
330
1F
100
AcDbEntity
  8
1
  6
Continuous
 62
     7
100
AcDbHatch
 10
0.0
 20
0.0
 30
0.0
210
0.0
220
0.0
230
1.0
  2
SOLID
 70
     1
 71
     1
 91
        1
 92
        1
 93
        5
 72
     1
 10
275.0096340220759
 20
14.15326939093666
 11
275.0096340220759
 21
11.0392519172633
 72
     1
 10
275.0096340220759
 20
11.0392519172633
 11
275.0096340220759
 21
10.84673060906323
 72
     2
 10
274.6763006887427
 20
10.84673060906323
 40
0.3333333333333712
 50
0.0
 51
180.0
 73
     0
 72
     1
 10
274.3429673554093
 20
10.84673060906323
 11
274.3429673554093
 21
14.15326939093666
 72
     2
 10
274.6763006887427
 20
14.15326939093666
 40
0.3333333333332007
 50
180.0
 51
360.0
 73
     0
 97
        5
330
65
330
64
330
1FA
330
63
330
1FB
 75
     0
 76
     1
 98
        1
 10
0.0
 20
0.0
  0
HATCH
  5
313
330
1F
100
AcDbEntity
  8
1
  6
Continuous
 62
     7
100
AcDbHatch
 10
0.0
 20
0.0
 30
0.0
210
0.0
220
0.0
230
1.0
  2
SOLID
 70
     1
 71
     1
 91
        1
 92
        1
 93
        7
 72
     1
 10
276.3429673554093
 20
14.92250016016737
 11
276.3429673554093
 21
10.2700211480327
 72
     1
 10
276.3429673554093
 20
10.2700211480327
 11
278.5095415065725
 21
9.020074522361597
 72
     2
 10
278.3429673554093
 20
8.731345993678701
 40
0.3333333333333709
 50
299.9816393688421
 51
479.9816393688507
 73
     0
 72
     1
 10
278.1763932042461
 20
8.442617464995806
 11
276.009819053083
 21
9.692564090666906
 72
     2
 10
276.3429673554093
 20
10.2700211480327
 40
0.6666666666666288
 50
119.981639368842
 51
179.9999999999896
 73
     0
 72
     1
 10
275.6763006887427
 20
10.27002114803258
 11
275.6763006887427
 21
14.92250016016737
 72
     2
 10
276.0096340220759
 20
14.92250016016737
 40
0.3333333333334281
 50
180.0
 51
360.0
 73
     0
 97
        7
330
68
330
67
330
1FC
330
66
330
2A3
330
69
330
1FD
 75
     0
 76
     1
 98
        1
 10
0.0
 20
0.0
  0
HATCH
  5
314
330
1F
100
AcDbEntity
  8
1
  6
Continuous
 62
     7
100
AcDbHatch
 10
0.0
 20
0.0
 30
0.0
210
0.0
220
0.0
230
1.0
  2
SOLID
 70
     1
 71
     1
 91
        1
 92
        1
 93
       16
 72
     2
 10
277.2746002345513
 20
15.73121731203457
 40
0.2649662124752854
 50
30.00000000001921
 51
180.0
 73
     1
 72
     1
 10
277.0096340220759
 20
15.73121731203457
 11
277.0096340220759
 21
12.5
 72
     1
 10
277.0096340220759
 20
12.5
 11
277.0096340220759
 21
10.84758507263291
 72
     2
 10
277.3429673554093
 20
10.84758507263291
 40
0.3333333333334281
 50
180.0
 51
360.0
 73
     1
 72
     1
 10
277.6763006887427
 20
10.84758507263291
 11
277.6763006887427
 21
12.5
 72
     1
 10
277.6763006887427
 20
12.5
 11
277.6763006887427
 21
14.23205080756884
 72
     1
 10
277.6763006887427
 20
14.23205080756884
 11
278.5319631214452
 21
12.75
 72
     2
 10
278.6763006887427
 20
12.83333333333326
 40
0.166666666666709
 50
209.9999999999622
 51
330.000000000028
 73
     1
 72
     1
 10
278.8206382560401
 20
12.75
 11
279.6763006887427
 21
14.23205080756884
 72
     1
 10
279.6763006887427
 20
14.23205080756884
 11
279.6763006887427
 21
12.5
 72
     1
 10
279.6763006887427
 20
12.5
 11
279.6763006887427
 21
9.308269070601796
 72
     2
 10
280.0096340220761
 20
9.308269070601796
 40
0.3333333333334281
 50
180.0
 51
360.0
 73
     1
 72
     1
 10
280.3429673554093
 20
9.308269070601796
 11
280.3429673554093
 21
15.73121731203457
 72
     2
 10
280.078001142934
 20
15.73121731203457
 40
0.2649662124753149
 50
0.0
 51
149.9999999999685
 73
     1
 72
     1
 10
279.848533671786
 20
15.86370041827229
 11
278.6763006887427
 21
13.83333333333326
 72
     1
 10
278.6763006887427
 20
13.83333333333326
 11
277.5040677056994
 21
15.86370041827229
 97
       16
330
6A
330
1FE
330
6B
330
1FF
330
6C
330
78
330
77
330
2A4
330
76
330
75
330
6D
330
200
330
6E
330
70
330
201
330
6F
 75
     0
 76
     1
 98
        1
 10
0.0
 20
0.0
  0
ENDSEC
  0
SECTION
  2
OBJECTS
  0
DICTIONARY
  5
C
330
0
100
AcDbDictionary
281
     1
  3
ACAD_GROUP
350
D
  3
ACAD_LAYOUT
350
1A
  3
ACAD_MATERIAL
350
3B
  3
ACAD_MLEADERSTYLE
350
317
  3
ACAD_MLINESTYLE
350
17
  3
ACAD_PLOTSETTINGS
350
19
  3
ACAD_PLOTSTYLENAME
350
E
  3
ACAD_VISUALSTYLE
350
2A
  3
AcDbVariableDictionary
350
315
  0
DICTIONARY
  5
D
102
{ACAD_REACTORS
330
C
102
}
330
C
100
AcDbDictionary
281
     1
  0
DICTIONARY
  5
1A
102
{ACAD_REACTORS
330
C
102
}
330
C
100
AcDbDictionary
281
     1
  3
Layout1
350
1E
  3
Layout2
350
26
  3
Model
350
22
  0
DICTIONARY
  5
3B
102
{ACAD_REACTORS
330
C
102
}
330
C
100
AcDbDictionary
281
     1
  3
ByBlock
350
3D
  3
ByLayer
350
3C
  3
Global
350
3E
  0
DICTIONARY
  5
317
102
{ACAD_REACTORS
330
C
102
}
330
C
100
AcDbDictionary
281
     1
  0
DICTIONARY
  5
17
102
{ACAD_REACTORS
330
C
102
}
330
C
100
AcDbDictionary
281
     1
  3
Standard
350
18
  0
DICTIONARY
  5
19
102
{ACAD_REACTORS
330
C
102
}
330
C
100
AcDbDictionary
281
     1
  0
ACDBDICTIONARYWDFLT
  5
E
102
{ACAD_REACTORS
330
C
102
}
330
C
100
AcDbDictionary
281
     1
  3
Normal
350
F
100
AcDbDictionaryWithDefault
340
F
  0
DICTIONARY
  5
2A
102
{ACAD_REACTORS
330
C
102
}
330
C
100
AcDbDictionary
281
     1
  3
2dWireframe
350
2F
  3
3D Hidden
350
31
  3
3dWireframe
350
30
  3
Basic
350
32
  3
Brighten
350
36
  3
ColorChange
350
3A
  3
Conceptual
350
34
  3
Dim
350
35
  3
Facepattern
350
39
  3
Flat
350
2B
  3
FlatWithEdges
350
2C
  3
Gouraud
350
2D
  3
GouraudWithEdges
350
2E
  3
Linepattern
350
38
  3
Realistic
350
33
  3
Thicken
350
37
  0
DICTIONARY
  5
315
102
{ACAD_REACTORS
330
C
102
}
330
C
100
AcDbDictionary
281
     1
  3
DIMASSOC
350
318
  3
HIDETEXT
350
319
  0
LAYOUT
  5
1E
102
{ACAD_REACTORS
330
1A
102
}
330
1A
100
AcDbPlotSettings
  1

  2
none_device
  4

  6

 40
0.0
 41
0.0
 42
0.0
 43
0.0
 44
0.0
 45
0.0
 46
0.0
 47
0.0
 48
0.0
 49
0.0
140
0.0
141
0.0
142
1.0
143
1.0
 70
   688
 72
     0
 73
     0
 74
     5
  7

 75
    16
147
1.0
148
0.0
149
0.0
100
AcDbLayout
  1
Layout1
 70
     1
 71
     1
 10
0.0
 20
0.0
 11
12.0
 21
9.0
 12
0.0
 22
0.0
 32
0.0
 14
1.00000000000000E+20
 24
1.00000000000000E+20
 34
1.00000000000000E+20
 15
-1.00000000000000E+20
 25
-1.00000000000000E+20
 35
-1.00000000000000E+20
146
0.0
 13
0.0
 23
0.0
 33
0.0
 16
1.0
 26
0.0
 36
0.0
 17
0.0
 27
1.0
 37
0.0
 76
     0
330
1B
  0
LAYOUT
  5
26
102
{ACAD_REACTORS
330
1A
102
}
330
1A
100
AcDbPlotSettings
  1

  2
none_device
  4

  6

 40
0.0
 41
0.0
 42
0.0
 43
0.0
 44
0.0
 45
0.0
 46
0.0
 47
0.0
 48
0.0
 49
0.0
140
0.0
141
0.0
142
1.0
143
1.0
 70
   688
 72
     0
 73
     0
 74
     5
  7

 75
    16
147
1.0
148
0.0
149
0.0
100
AcDbLayout
  1
Layout2
 70
     1
 71
     2
 10
0.0
 20
0.0
 11
0.0
 21
0.0
 12
0.0
 22
0.0
 32
0.0
 14
0.0
 24
0.0
 34
0.0
 15
0.0
 25
0.0
 35
0.0
146
0.0
 13
0.0
 23
0.0
 33
0.0
 16
1.0
 26
0.0
 36
0.0
 17
0.0
 27
1.0
 37
0.0
 76
     0
330
23
  0
LAYOUT
  5
22
102
{ACAD_REACTORS
330
1A
102
}
330
1A
100
AcDbPlotSettings
  1

  2
none_device
  4

  6

 40
0.0
 41
0.0
 42
0.0
 43
0.0
 44
0.0
 45
0.0
 46
0.0
 47
0.0
 48
0.0
 49
0.0
140
0.0
141
0.0
142
1.0
143
1.0
 70
  1712
 72
     0
 73
     0
 74
     0
  7

 75
     0
147
1.0
148
0.0
149
0.0
100
AcDbLayout
  1
Model
 70
     1
 71
     0
 10
0.0
 20
0.0
 11
12.0
 21
9.0
 12
0.0
 22
0.0
 32
0.0
 14
-0.00000000000011
 24
0.0
 34
0.0
 15
297.0
 25
210.0000000000001
 35
0.0
146
0.0
 13
0.0
 23
0.0
 33
0.0
 16
1.0
 26
0.0
 36
0.0
 17
0.0
 27
1.0
 37
0.0
 76
     0
330
1F
331
29
  0
MATERIAL
  5
3D
102
{ACAD_REACTORS
330
3B
102
}
102
{ACAD_XDICTIONARY
360
33C
102
}
330
3B
100
AcDbMaterial
  1
ByBlock
  0
MATERIAL
  5
3C
102
{ACAD_REACTORS
330
3B
102
}
102
{ACAD_XDICTIONARY
360
33A
102
}
330
3B
100
AcDbMaterial
  1
ByLayer
  0
MATERIAL
  5
3E
102
{ACAD_REACTORS
330
3B
102
}
102
{ACAD_XDICTIONARY
360
33E
102
}
330
3B
100
AcDbMaterial
  1
Global
  0
MLINESTYLE
  5
18
102
{ACAD_REACTORS
330
17
102
}
330
17
100
AcDbMlineStyle
  2
Standard
 70
     0
  3

 62
   256
 51
90.0
 52
90.0
 71
     2
 49
0.5
 62
   256
  6
BYLAYER
 49
-0.5
 62
   256
  6
BYLAYER
  0
ACDBPLACEHOLDER
  5
F
102
{ACAD_REACTORS
330
E
102
}
330
E
  0
VISUALSTYLE
  5
2F
102
{ACAD_REACTORS
330
2A
102
}
102
{ACAD_XDICTIONARY
360
322
102
}
330
2A
100
AcDbVisualStyle
  2
2dWireframe
 70
     4
 71
     0
 72
     2
 73
     0
 90
        0
 40
-0.6
 41
-30.0
 62
     5
 63
     7
 74
     1
 91
        4
 64
     7
 65
   257
 75
     1
175
     1
 42
1.0
 92
        0
 66
   257
 43
1.0
 76
     1
 77
     6
 78
     2
 67
     7
 79
     5
170
     0
171
     0
290
     0
174
     0
 93
        1
 44
0.0
173
     0
291
     0
 45
0.0
1001
ACAD
1000
AcDbSavedByObjectVersion
1070
     0
  0
VISUALSTYLE
  5
31
102
{ACAD_REACTORS
330
2A
102
}
102
{ACAD_XDICTIONARY
360
326
102
}
330
2A
100
AcDbVisualStyle
  2
3D Hidden
 70
     6
 71
     1
 72
     2
 73
     2
 90
        0
 40
-0.6
 41
-30.0
 62
     5
 63
     7
 74
     2
 91
        2
 64
     7
 65
   257
 75
     2
175
     1
 42
40.0
 92
        0
 66
   257
 43
1.0
 76
     1
 77
     6
 78
     2
 67
     7
 79
     3
170
     0
171
     0
290
     0
174
     0
 93
        1
 44
0.0
173
     0
291
     0
 45
0.0
1001
ACAD
1000
AcDbSavedByObjectVersion
1070
     0
  0
VISUALSTYLE
  5
30
102
{ACAD_REACTORS
330
2A
102
}
102
{ACAD_XDICTIONARY
360
324
102
}
330
2A
100
AcDbVisualStyle
  2
3dWireframe
 70
     5
 71
     0
 72
     2
 73
     0
 90
        0
 40
-0.6
 41
-30.0
 62
     5
 63
     7
 74
     1
 91
        4
 64
     7
 65
   257
 75
     1
175
     1
 42
1.0
 92
        0
 66
   257
 43
1.0
 76
     1
 77
     6
 78
     2
 67
     7
 79
     5
170
     0
171
     0
290
     0
174
     0
 93
        1
 44
0.0
173
     0
291
     0
 45
0.0
1001
ACAD
1000
AcDbSavedByObjectVersion
1070
     0
  0
VISUALSTYLE
  5
32
102
{ACAD_REACTORS
330
2A
102
}
102
{ACAD_XDICTIONARY
360
328
102
}
330
2A
100
AcDbVisualStyle
  2
Basic
 70
     7
 71
     1
 72
     0
 73
     1
 90
        0
 40
-0.6
 41
-30.0
 62
     5
 63
     7
 74
     0
 91
        4
 64
     7
 65
   257
 75
     1
175
     1
 42
1.0
 92
        8
 66
     7
 43
1.0
 76
     1
 77
     6
 78
     2
 67
     7
 79
     5
170
     0
171
     0
290
     0
174
     0
 93
        1
 44
0.0
173
     0
291
     1
 45
0.0
1001
ACAD
1000
AcDbSavedByObjectVersion
1070
     0
  0
VISUALSTYLE
  5
36
102
{ACAD_REACTORS
330
2A
102
}
102
{ACAD_XDICTIONARY
360
330
102
}
330
2A
100
AcDbVisualStyle
  2
Brighten
 70
    12
 71
     2
 72
     2
 73
     0
 90
        0
 40
-0.6
 41
-30.0
 62
     5
 63
     7
 74
     1
 91
        4
 64
     7
 65
   257
 75
     1
175
     1
 42
1.0
 92
        8
 66
     7
 43
1.0
 76
     1
 77
     6
 78
     2
 67
     7
 79
     5
170
     0
171
     0
290
     0
174
     0
 93
        1
 44
50.0
173
     0
291
     1
 45
0.0
1001
ACAD
1000
AcDbSavedByObjectVersion
1070
     0
  0
VISUALSTYLE
  5
3A
102
{ACAD_REACTORS
330
2A
102
}
102
{ACAD_XDICTIONARY
360
338
102
}
330
2A
100
AcDbVisualStyle
  2
ColorChange
 70
    16
 71
     2
 72
     2
 73
     3
 90
        0
 40
-0.6
 41
-30.0
 62
     5
 63
     8
 74
     1
 91
        4
 64
     7
 65
   257
 75
     1
175
     1
 42
1.0
 92
        8
 66
     8
 43
1.0
 76
     1
 77
     6
 78
     2
 67
     7
 79
     5
170
     0
171
     0
290
     0
174
     0
 93
        1
 44
0.0
173
     0
291
     1
 45
0.0
1001
ACAD
1000
AcDbSavedByObjectVersion
1070
     0
  0
VISUALSTYLE
  5
34
102
{ACAD_REACTORS
330
2A
102
}
102
{ACAD_XDICTIONARY
360
32C
102
}
330
2A
100
AcDbVisualStyle
  2
Conceptual
 70
     9
 71
     3
 72
     2
 73
     0
 90
        0
 40
-0.6
 41
-30.0
 62
     5
 63
     7
 74
     2
 91
        2
 64
     7
 65
   257
 75
     1
175
     1
 42
40.0
 92
        8
 66
     7
 43
1.0
 76
     1
 77
     6
 78
     2
 67
     7
 79
     3
170
     0
171
     0
290
     0
174
     0
 93
        1
 44
0.0
173
     0
291
     0
 45
0.0
1001
ACAD
1000
AcDbSavedByObjectVersion
1070
     0
  0
VISUALSTYLE
  5
35
102
{ACAD_REACTORS
330
2A
102
}
102
{ACAD_XDICTIONARY
360
32E
102
}
330
2A
100
AcDbVisualStyle
  2
Dim
 70
    11
 71
     2
 72
     2
 73
     0
 90
        0
 40
-0.6
 41
-30.0
 62
     5
 63
     7
 74
     1
 91
        4
 64
     7
 65
   257
 75
     1
175
     1
 42
1.0
 92
        8
 66
     7
 43
1.0
 76
     1
 77
     6
 78
     2
 67
     7
 79
     5
170
     0
171
     0
290
     0
174
     0
 93
        1
 44
-50.0
173
     0
291
     1
 45
0.0
1001
ACAD
1000
AcDbSavedByObjectVersion
1070
     0
  0
VISUALSTYLE
  5
39
102
{ACAD_REACTORS
330
2A
102
}
102
{ACAD_XDICTIONARY
360
336
102
}
330
2A
100
AcDbVisualStyle
  2
Facepattern
 70
    15
 71
     2
 72
     2
 73
     0
 90
        0
 40
-0.6
 41
-30.0
 62
     5
 63
     7
 74
     1
 91
        4
 64
     7
 65
   257
 75
     1
175
     1
 42
1.0
 92
        8
 66
     7
 43
1.0
 76
     1
 77
     6
 78
     2
 67
     7
 79
     5
170
     0
171
     0
290
     0
174
     0
 93
        1
 44
0.0
173
     0
291
     1
 45
0.0
1001
ACAD
1000
AcDbSavedByObjectVersion
1070
     0
  0
VISUALSTYLE
  5
2B
102
{ACAD_REACTORS
330
2A
102
}
102
{ACAD_XDICTIONARY
360
31A
102
}
330
2A
100
AcDbVisualStyle
  2
Flat
 70
     0
 71
     2
 72
     1
 73
     1
 90
        2
 40
-0.6
 41
30.0
 62
     5
 63
     7
 74
     0
 91
        4
 64
     7
 65
   257
 75
     1
175
     1
 42
1.0
 92
        8
 66
     7
 43
1.0
 76
     1
 77
     6
 78
     2
 67
     7
 79
     5
170
     0
171
     0
290
     0
174
     0
 93
       13
 44
0.0
173
     0
291
     1
 45
0.0
1001
ACAD
1000
AcDbSavedByObjectVersion
1070
     0
  0
VISUALSTYLE
  5
2C
102
{ACAD_REACTORS
330
2A
102
}
102
{ACAD_XDICTIONARY
360
31C
102
}
330
2A
100
AcDbVisualStyle
  2
FlatWithEdges
 70
     1
 71
     2
 72
     1
 73
     1
 90
        2
 40
-0.6
 41
30.0
 62
     5
 63
     7
 74
     1
 91
        4
 64
     7
 65
   257
 75
     1
175
     1
 42
1.0
 92
        0
 66
   257
 43
1.0
 76
     1
 77
     6
 78
     2
 67
     7
 79
     5
170
     0
171
     0
290
     0
174
     0
 93
       13
 44
0.0
173
     0
291
     1
 45
0.0
1001
ACAD
1000
AcDbSavedByObjectVersion
1070
     0
  0
VISUALSTYLE
  5
2D
102
{ACAD_REACTORS
330
2A
102
}
102
{ACAD_XDICTIONARY
360
31E
102
}
330
2A
100
AcDbVisualStyle
  2
Gouraud
 70
     2
 71
     2
 72
     2
 73
     1
 90
        2
 40
-0.6
 41
30.0
 62
     5
 63
     7
 74
     0
 91
        4
 64
     7
 65
   257
 75
     1
175
     1
 42
1.0
 92
        0
 66
     7
 43
1.0
 76
     1
 77
     6
 78
     2
 67
     7
 79
     5
170
     0
171
     0
290
     0
174
     0
 93
       13
 44
0.0
173
     0
291
     1
 45
0.0
1001
ACAD
1000
AcDbSavedByObjectVersion
1070
     0
  0
VISUALSTYLE
  5
2E
102
{ACAD_REACTORS
330
2A
102
}
102
{ACAD_XDICTIONARY
360
320
102
}
330
2A
100
AcDbVisualStyle
  2
GouraudWithEdges
 70
     3
 71
     2
 72
     2
 73
     1
 90
        2
 40
-0.6
 41
30.0
 62
     5
 63
     7
 74
     1
 91
        4
 64
     7
 65
   257
 75
     1
175
     1
 42
1.0
 92
        0
 66
   257
 43
1.0
 76
     1
 77
     6
 78
     2
 67
     7
 79
     5
170
     0
171
     0
290
     0
174
     0
 93
       13
 44
0.0
173
     0
291
     1
 45
0.0
1001
ACAD
1000
AcDbSavedByObjectVersion
1070
     0
  0
VISUALSTYLE
  5
38
102
{ACAD_REACTORS
330
2A
102
}
102
{ACAD_XDICTIONARY
360
334
102
}
330
2A
100
AcDbVisualStyle
  2
Linepattern
 70
    14
 71
     2
 72
     2
 73
     0
 90
        0
 40
-0.6
 41
-30.0
 62
     5
 63
     7
 74
     1
 91
        4
 64
     7
 65
   257
 75
     7
175
     7
 42
1.0
 92
        8
 66
     7
 43
1.0
 76
     1
 77
     6
 78
     2
 67
     7
 79
     5
170
     0
171
     0
290
     0
174
     0
 93
        1
 44
0.0
173
     0
291
     1
 45
0.0
1001
ACAD
1000
AcDbSavedByObjectVersion
1070
     0
  0
VISUALSTYLE
  5
33
102
{ACAD_REACTORS
330
2A
102
}
102
{ACAD_XDICTIONARY
360
32A
102
}
330
2A
100
AcDbVisualStyle
  2
Realistic
 70
     8
 71
     2
 72
     2
 73
     0
 90
        0
 40
-0.6
 41
-30.0
 62
     5
 63
     7
 74
     1
 91
        0
 64
     7
 65
   257
 75
     1
175
     1
 42
1.0
 92
        8
 66
     8
 43
1.0
 76
     1
 77
     6
 78
     2
 67
     7
 79
     5
170
     0
171
     0
290
     0
174
     0
 93
       13
 44
0.0
173
     0
291
     0
 45
0.0
1001
ACAD
1000
AcDbSavedByObjectVersion
1070
     0
  0
VISUALSTYLE
  5
37
102
{ACAD_REACTORS
330
2A
102
}
102
{ACAD_XDICTIONARY
360
332
102
}
330
2A
100
AcDbVisualStyle
  2
Thicken
 70
    13
 71
     2
 72
     2
 73
     0
 90
        0
 40
-0.6
 41
-30.0
 62
     5
 63
     7
 74
     1
 91
        4
 64
     7
 65
   257
 75
     1
175
     1
 42
1.0
 92
       12
 66
     7
 43
1.0
 76
     1
 77
     6
 78
     2
 67
     7
 79
     5
170
     0
171
     0
290
     0
174
     0
 93
        1
 44
0.0
173
     0
291
     1
 45
0.0
1001
ACAD
1000
AcDbSavedByObjectVersion
1070
     0
  0
DICTIONARYVAR
  5
318
102
{ACAD_REACTORS
330
315
102
}
330
315
100
DictionaryVariables
280
     0
  1
2
  0
DICTIONARYVAR
  5
319
102
{ACAD_REACTORS
330
315
102
}
330
315
100
DictionaryVariables
280
     0
  1
1
  0
DICTIONARY
  5
33C
330
3D
100
AcDbDictionary
280
     1
281
     1
  3
ACAD_XREC_ROUNDTRIP
360
33D
  0
DICTIONARY
  5
33A
330
3C
100
AcDbDictionary
280
     1
281
     1
  3
ACAD_XREC_ROUNDTRIP
360
33B
  0
DICTIONARY
  5
33E
330
3E
100
AcDbDictionary
280
     1
281
     1
  3
ACAD_XREC_ROUNDTRIP
360
33F
  0
DICTIONARY
  5
322
330
2F
100
AcDbDictionary
280
     1
281
     1
  3
ACAD_XREC_ROUNDTRIP
360
323
  0
DICTIONARY
  5
326
330
31
100
AcDbDictionary
280
     1
281
     1
  3
ACAD_XREC_ROUNDTRIP
360
327
  0
DICTIONARY
  5
324
330
30
100
AcDbDictionary
280
     1
281
     1
  3
ACAD_XREC_ROUNDTRIP
360
325
  0
DICTIONARY
  5
328
330
32
100
AcDbDictionary
280
     1
281
     1
  3
ACAD_XREC_ROUNDTRIP
360
329
  0
DICTIONARY
  5
330
330
36
100
AcDbDictionary
280
     1
281
     1
  3
ACAD_XREC_ROUNDTRIP
360
331
  0
DICTIONARY
  5
338
330
3A
100
AcDbDictionary
280
     1
281
     1
  3
ACAD_XREC_ROUNDTRIP
360
339
  0
DICTIONARY
  5
32C
330
34
100
AcDbDictionary
280
     1
281
     1
  3
ACAD_XREC_ROUNDTRIP
360
32D
  0
DICTIONARY
  5
32E
330
35
100
AcDbDictionary
280
     1
281
     1
  3
ACAD_XREC_ROUNDTRIP
360
32F
  0
DICTIONARY
  5
336
330
39
100
AcDbDictionary
280
     1
281
     1
  3
ACAD_XREC_ROUNDTRIP
360
337
  0
DICTIONARY
  5
31A
330
2B
100
AcDbDictionary
280
     1
281
     1
  3
ACAD_XREC_ROUNDTRIP
360
31B
  0
DICTIONARY
  5
31C
330
2C
100
AcDbDictionary
280
     1
281
     1
  3
ACAD_XREC_ROUNDTRIP
360
31D
  0
DICTIONARY
  5
31E
330
2D
100
AcDbDictionary
280
     1
281
     1
  3
ACAD_XREC_ROUNDTRIP
360
31F
  0
DICTIONARY
  5
320
330
2E
100
AcDbDictionary
280
     1
281
     1
  3
ACAD_XREC_ROUNDTRIP
360
321
  0
DICTIONARY
  5
334
330
38
100
AcDbDictionary
280
     1
281
     1
  3
ACAD_XREC_ROUNDTRIP
360
335
  0
DICTIONARY
  5
32A
330
33
100
AcDbDictionary
280
     1
281
     1
  3
ACAD_XREC_ROUNDTRIP
360
32B
  0
DICTIONARY
  5
332
330
37
100
AcDbDictionary
280
     1
281
     1
  3
ACAD_XREC_ROUNDTRIP
360
333
  0
XRECORD
  5
33D
102
{ACAD_REACTORS
330
33C
102
}
330
33C
100
AcDbXrecord
280
     1
102
MATERIAL
148
0.0
149
0.0
149
0.0
 93
        0
 94
      127
282
     0
 72
     1
 77
     1
171
     1
175
     1
179
     1
273
     0
  0
XRECORD
  5
33B
102
{ACAD_REACTORS
330
33A
102
}
330
33A
100
AcDbXrecord
280
     1
102
MATERIAL
148
0.0
149
0.0
149
0.0
 93
        0
 94
      127
282
     0
 72
     1
 77
     1
171
     1
175
     1
179
     1
273
     0
  0
XRECORD
  5
33F
102
{ACAD_REACTORS
330
33E
102
}
330
33E
100
AcDbXrecord
280
     1
102
MATERIAL
148
0.0
149
0.0
149
0.0
 93
        0
 94
      127
282
     0
 72
     1
 77
     1
171
     1
175
     1
179
     1
273
     0
  0
XRECORD
  5
323
102
{ACAD_REACTORS
330
322
102
}
330
322
100
AcDbXrecord
280
     1
102
RTVSPropertyOp0
 70
     1
102
RTVSPropertyOp1
 70
     1
102
RTVSPropertyOp2
 70
     1
102
RTVSPropertyOp3
 70
     1
102
RTVSPropertyOp4
 70
     1
102
RTVSPropertyOp5
 70
     1
102
RTVSPropertyOp6
 70
     1
102
RTVSPropertyOp7
 70
     1
102
RTVSPropertyOp8
 70
     1
102
RTVSPropertyOp9
 70
     1
102
RTVSPropertyOp10
 70
     1
102
RTVSPropertyOp11
 70
     1
102
RTVSPropertyOp12
 70
     1
102
RTVSPropertyOp13
 70
     1
102
RTVSPropertyOp14
 70
     1
102
RTVSPropertyOp15
 70
     1
102
RTVSPropertyOp16
 70
     1
102
RTVSPropertyOp17
 70
     1
102
RTVSPropertyOp18
 70
     1
102
RTVSPropertyOp19
 70
     1
102
RTVSPropertyOp20
 70
     1
102
RTVSPropertyOp21
 70
     1
102
RTVSPropertyOp22
 70
     1
102
RTVSPropertyOp23
 70
     1
102
RTVSPropertyOp24
 70
     1
102
RTVSPropertyOp25
 70
     1
102
RTVSPropertyOp26
 70
     1
102
RTVSPropertyOp27
 70
     1
102
RTVSPropertyOp28
 70
     1
102
RTVSPropertyOp29
 70
     1
102
RTVSPropertyOp30
 70
     1
102
RTVSPropertyOp31
 70
     1
102
RTVSPropertyOp32
 70
     1
  0
XRECORD
  5
327
102
{ACAD_REACTORS
330
326
102
}
330
326
100
AcDbXrecord
280
     1
102
RTVSPropertyOp0
 70
     1
102
RTVSPropertyOp1
 70
     1
102
RTVSPropertyOp2
 70
     1
102
RTVSPropertyOp3
 70
     1
102
RTVSPropertyOp4
 70
     1
102
RTVSPropertyOp5
 70
     1
102
RTVSPropertyOp6
 70
     1
102
RTVSPropertyOp7
 70
     1
102
RTVSPropertyOp8
 70
     1
102
RTVSPropertyOp9
 70
     1
102
RTVSPropertyOp10
 70
     1
102
RTVSPropertyOp11
 70
     1
102
RTVSPropertyOp12
 70
     1
102
RTVSPropertyOp13
 70
     1
102
RTVSPropertyOp14
 70
     1
102
RTVSPropertyOp15
 70
     1
102
RTVSPropertyOp16
 70
     1
102
RTVSPropertyOp17
 70
     1
102
RTVSPropertyOp18
 70
     1
102
RTVSPropertyOp19
 70
     1
102
RTVSPropertyOp20
 70
     1
102
RTVSPropertyOp21
 70
     1
102
RTVSPropertyOp22
 70
     1
102
RTVSPropertyOp23
 70
     1
102
RTVSPropertyOp24
 70
     1
102
RTVSPropertyOp25
 70
     1
102
RTVSPropertyOp26
 70
     1
102
RTVSPropertyOp27
 70
     1
102
RTVSPropertyOp28
 70
     1
102
RTVSPropertyOp29
 70
     1
102
RTVSPropertyOp30
 70
     1
102
RTVSPropertyOp31
 70
     1
102
RTVSPropertyOp32
 70
     1
  0
XRECORD
  5
325
102
{ACAD_REACTORS
330
324
102
}
330
324
100
AcDbXrecord
280
     1
102
RTVSPropertyOp0
 70
     1
102
RTVSPropertyOp1
 70
     1
102
RTVSPropertyOp2
 70
     1
102
RTVSPropertyOp3
 70
     1
102
RTVSPropertyOp4
 70
     1
102
RTVSPropertyOp5
 70
     1
102
RTVSPropertyOp6
 70
     1
102
RTVSPropertyOp7
 70
     1
102
RTVSPropertyOp8
 70
     1
102
RTVSPropertyOp9
 70
     1
102
RTVSPropertyOp10
 70
     1
102
RTVSPropertyOp11
 70
     1
102
RTVSPropertyOp12
 70
     1
102
RTVSPropertyOp13
 70
     1
102
RTVSPropertyOp14
 70
     1
102
RTVSPropertyOp15
 70
     1
102
RTVSPropertyOp16
 70
     1
102
RTVSPropertyOp17
 70
     1
102
RTVSPropertyOp18
 70
     1
102
RTVSPropertyOp19
 70
     1
102
RTVSPropertyOp20
 70
     1
102
RTVSPropertyOp21
 70
     1
102
RTVSPropertyOp22
 70
     1
102
RTVSPropertyOp23
 70
     1
102
RTVSPropertyOp24
 70
     1
102
RTVSPropertyOp25
 70
     1
102
RTVSPropertyOp26
 70
     1
102
RTVSPropertyOp27
 70
     1
102
RTVSPropertyOp28
 70
     1
102
RTVSPropertyOp29
 70
     1
102
RTVSPropertyOp30
 70
     1
102
RTVSPropertyOp31
 70
     1
102
RTVSPropertyOp32
 70
     1
  0
XRECORD
  5
329
102
{ACAD_REACTORS
330
328
102
}
330
328
100
AcDbXrecord
280
     1
102
RTVSPropertyOp0
 70
     1
102
RTVSPropertyOp1
 70
     1
102
RTVSPropertyOp2
 70
     1
102
RTVSPropertyOp3
 70
     1
102
RTVSPropertyOp4
 70
     1
102
RTVSPropertyOp5
 70
     1
102
RTVSPropertyOp6
 70
     1
102
RTVSPropertyOp7
 70
     1
102
RTVSPropertyOp8
 70
     1
102
RTVSPropertyOp9
 70
     1
102
RTVSPropertyOp10
 70
     1
102
RTVSPropertyOp11
 70
     1
102
RTVSPropertyOp12
 70
     1
102
RTVSPropertyOp13
 70
     1
102
RTVSPropertyOp14
 70
     1
102
RTVSPropertyOp15
 70
     1
102
RTVSPropertyOp16
 70
     1
102
RTVSPropertyOp17
 70
     1
102
RTVSPropertyOp18
 70
     1
102
RTVSPropertyOp19
 70
     1
102
RTVSPropertyOp20
 70
     1
102
RTVSPropertyOp21
 70
     1
102
RTVSPropertyOp22
 70
     1
102
RTVSPropertyOp23
 70
     1
102
RTVSPropertyOp24
 70
     1
102
RTVSPropertyOp25
 70
     1
102
RTVSPropertyOp26
 70
     1
102
RTVSPropertyOp27
 70
     1
102
RTVSPropertyOp28
 70
     1
102
RTVSPropertyOp29
 70
     1
102
RTVSPropertyOp30
 70
     1
102
RTVSPropertyOp31
 70
     1
102
RTVSPropertyOp32
 70
     1
  0
XRECORD
  5
331
102
{ACAD_REACTORS
330
330
102
}
330
330
100
AcDbXrecord
280
     1
102
RTVSPropertyOp0
 70
     1
102
RTVSPropertyOp1
 70
     1
102
RTVSPropertyOp2
 70
     1
102
RTVSPropertyOp3
 70
     1
102
RTVSPropertyOp4
 70
     1
102
RTVSPropertyOp5
 70
     1
102
RTVSPropertyOp6
 70
     1
102
RTVSPropertyOp7
 70
     1
102
RTVSPropertyOp8
 70
     1
102
RTVSPropertyOp9
 70
     1
102
RTVSPropertyOp10
 70
     1
102
RTVSPropertyOp11
 70
     1
102
RTVSPropertyOp12
 70
     1
102
RTVSPropertyOp13
 70
     1
102
RTVSPropertyOp14
 70
     1
102
RTVSPropertyOp15
 70
     1
102
RTVSPropertyOp16
 70
     1
102
RTVSPropertyOp17
 70
     1
102
RTVSPropertyOp18
 70
     1
102
RTVSPropertyOp19
 70
     1
102
RTVSPropertyOp20
 70
     1
102
RTVSPropertyOp21
 70
     1
102
RTVSPropertyOp22
 70
     1
102
RTVSPropertyOp23
 70
     1
102
RTVSPropertyOp24
 70
     1
102
RTVSPropertyOp25
 70
     1
102
RTVSPropertyOp26
 70
     1
102
RTVSPropertyOp27
 70
     1
102
RTVSPropertyOp28
 70
     1
102
RTVSPropertyOp29
 70
     1
102
RTVSPropertyOp30
 70
     1
102
RTVSPropertyOp31
 70
     1
102
RTVSPropertyOp32
 70
     1
  0
XRECORD
  5
339
102
{ACAD_REACTORS
330
338
102
}
330
338
100
AcDbXrecord
280
     1
102
RTVSPropertyOp0
 70
     1
102
RTVSPropertyOp1
 70
     1
102
RTVSPropertyOp2
 70
     1
102
RTVSPropertyOp3
 70
     1
102
RTVSPropertyOp4
 70
     1
102
RTVSPropertyOp5
 70
     1
102
RTVSPropertyOp6
 70
     1
102
RTVSPropertyOp7
 70
     1
102
RTVSPropertyOp8
 70
     1
102
RTVSPropertyOp9
 70
     1
102
RTVSPropertyOp10
 70
     1
102
RTVSPropertyOp11
 70
     1
102
RTVSPropertyOp12
 70
     1
102
RTVSPropertyOp13
 70
     1
102
RTVSPropertyOp14
 70
     1
102
RTVSPropertyOp15
 70
     1
102
RTVSPropertyOp16
 70
     1
102
RTVSPropertyOp17
 70
     1
102
RTVSPropertyOp18
 70
     1
102
RTVSPropertyOp19
 70
     1
102
RTVSPropertyOp20
 70
     1
102
RTVSPropertyOp21
 70
     1
102
RTVSPropertyOp22
 70
     1
102
RTVSPropertyOp23
 70
     1
102
RTVSPropertyOp24
 70
     1
102
RTVSPropertyOp25
 70
     1
102
RTVSPropertyOp26
 70
     1
102
RTVSPropertyOp27
 70
     1
102
RTVSPropertyOp28
 70
     1
102
RTVSPropertyOp29
 70
     1
102
RTVSPropertyOp30
 70
     1
102
RTVSPropertyOp31
 70
     1
102
RTVSPropertyOp32
 70
     1
  0
XRECORD
  5
32D
102
{ACAD_REACTORS
330
32C
102
}
330
32C
100
AcDbXrecord
280
     1
102
RTVSPropertyOp0
 70
     1
102
RTVSPropertyOp1
 70
     1
102
RTVSPropertyOp2
 70
     1
102
RTVSPropertyOp3
 70
     1
102
RTVSPropertyOp4
 70
     1
102
RTVSPropertyOp5
 70
     1
102
RTVSPropertyOp6
 70
     1
102
RTVSPropertyOp7
 70
     1
102
RTVSPropertyOp8
 70
     1
102
RTVSPropertyOp9
 70
     1
102
RTVSPropertyOp10
 70
     1
102
RTVSPropertyOp11
 70
     1
102
RTVSPropertyOp12
 70
     1
102
RTVSPropertyOp13
 70
     1
102
RTVSPropertyOp14
 70
     1
102
RTVSPropertyOp15
 70
     1
102
RTVSPropertyOp16
 70
     1
102
RTVSPropertyOp17
 70
     1
102
RTVSPropertyOp18
 70
     1
102
RTVSPropertyOp19
 70
     1
102
RTVSPropertyOp20
 70
     1
102
RTVSPropertyOp21
 70
     1
102
RTVSPropertyOp22
 70
     1
102
RTVSPropertyOp23
 70
     1
102
RTVSPropertyOp24
 70
     1
102
RTVSPropertyOp25
 70
     1
102
RTVSPropertyOp26
 70
     1
102
RTVSPropertyOp27
 70
     1
102
RTVSPropertyOp28
 70
     1
102
RTVSPropertyOp29
 70
     1
102
RTVSPropertyOp30
 70
     1
102
RTVSPropertyOp31
 70
     1
102
RTVSPropertyOp32
 70
     1
  0
XRECORD
  5
32F
102
{ACAD_REACTORS
330
32E
102
}
330
32E
100
AcDbXrecord
280
     1
102
RTVSPropertyOp0
 70
     1
102
RTVSPropertyOp1
 70
     1
102
RTVSPropertyOp2
 70
     1
102
RTVSPropertyOp3
 70
     1
102
RTVSPropertyOp4
 70
     1
102
RTVSPropertyOp5
 70
     1
102
RTVSPropertyOp6
 70
     1
102
RTVSPropertyOp7
 70
     1
102
RTVSPropertyOp8
 70
     1
102
RTVSPropertyOp9
 70
     1
102
RTVSPropertyOp10
 70
     1
102
RTVSPropertyOp11
 70
     1
102
RTVSPropertyOp12
 70
     1
102
RTVSPropertyOp13
 70
     1
102
RTVSPropertyOp14
 70
     1
102
RTVSPropertyOp15
 70
     1
102
RTVSPropertyOp16
 70
     1
102
RTVSPropertyOp17
 70
     1
102
RTVSPropertyOp18
 70
     1
102
RTVSPropertyOp19
 70
     1
102
RTVSPropertyOp20
 70
     1
102
RTVSPropertyOp21
 70
     1
102
RTVSPropertyOp22
 70
     1
102
RTVSPropertyOp23
 70
     1
102
RTVSPropertyOp24
 70
     1
102
RTVSPropertyOp25
 70
     1
102
RTVSPropertyOp26
 70
     1
102
RTVSPropertyOp27
 70
     1
102
RTVSPropertyOp28
 70
     1
102
RTVSPropertyOp29
 70
     1
102
RTVSPropertyOp30
 70
     1
102
RTVSPropertyOp31
 70
     1
102
RTVSPropertyOp32
 70
     1
  0
XRECORD
  5
337
102
{ACAD_REACTORS
330
336
102
}
330
336
100
AcDbXrecord
280
     1
102
RTVSPropertyOp0
 70
     1
102
RTVSPropertyOp1
 70
     1
102
RTVSPropertyOp2
 70
     1
102
RTVSPropertyOp3
 70
     1
102
RTVSPropertyOp4
 70
     1
102
RTVSPropertyOp5
 70
     1
102
RTVSPropertyOp6
 70
     1
102
RTVSPropertyOp7
 70
     1
102
RTVSPropertyOp8
 70
     1
102
RTVSPropertyOp9
 70
     1
102
RTVSPropertyOp10
 70
     1
102
RTVSPropertyOp11
 70
     1
102
RTVSPropertyOp12
 70
     1
102
RTVSPropertyOp13
 70
     1
102
RTVSPropertyOp14
 70
     1
102
RTVSPropertyOp15
 70
     1
102
RTVSPropertyOp16
 70
     1
102
RTVSPropertyOp17
 70
     1
102
RTVSPropertyOp18
 70
     1
102
RTVSPropertyOp19
 70
     1
102
RTVSPropertyOp20
 70
     1
102
RTVSPropertyOp21
 70
     1
102
RTVSPropertyOp22
 70
     1
102
RTVSPropertyOp23
 70
     1
102
RTVSPropertyOp24
 70
     1
102
RTVSPropertyOp25
 70
     1
102
RTVSPropertyOp26
 70
     1
102
RTVSPropertyOp27
 70
     1
102
RTVSPropertyOp28
 70
     1
102
RTVSPropertyOp29
 70
     1
102
RTVSPropertyOp30
 70
     1
102
RTVSPropertyOp31
 70
     1
102
RTVSPropertyOp32
 70
     1
  0
XRECORD
  5
31B
102
{ACAD_REACTORS
330
31A
102
}
330
31A
100
AcDbXrecord
280
     1
102
RTVSPropertyOp0
 70
     1
102
RTVSPropertyOp1
 70
     1
102
RTVSPropertyOp2
 70
     1
102
RTVSPropertyOp3
 70
     1
102
RTVSPropertyOp4
 70
     1
102
RTVSPropertyOp5
 70
     1
102
RTVSPropertyOp6
 70
     1
102
RTVSPropertyOp7
 70
     1
102
RTVSPropertyOp8
 70
     1
102
RTVSPropertyOp9
 70
     1
102
RTVSPropertyOp10
 70
     1
102
RTVSPropertyOp11
 70
     1
102
RTVSPropertyOp12
 70
     1
102
RTVSPropertyOp13
 70
     1
102
RTVSPropertyOp14
 70
     1
102
RTVSPropertyOp15
 70
     1
102
RTVSPropertyOp16
 70
     1
102
RTVSPropertyOp17
 70
     1
102
RTVSPropertyOp18
 70
     1
102
RTVSPropertyOp19
 70
     1
102
RTVSPropertyOp20
 70
     1
102
RTVSPropertyOp21
 70
     1
102
RTVSPropertyOp22
 70
     1
102
RTVSPropertyOp23
 70
     1
102
RTVSPropertyOp24
 70
     1
102
RTVSPropertyOp25
 70
     1
102
RTVSPropertyOp26
 70
     1
102
RTVSPropertyOp27
 70
     1
102
RTVSPropertyOp28
 70
     1
102
RTVSPropertyOp29
 70
     1
102
RTVSPropertyOp30
 70
     1
102
RTVSPropertyOp31
 70
     1
102
RTVSPropertyOp32
 70
     1
  0
XRECORD
  5
31D
102
{ACAD_REACTORS
330
31C
102
}
330
31C
100
AcDbXrecord
280
     1
102
RTVSPropertyOp0
 70
     1
102
RTVSPropertyOp1
 70
     1
102
RTVSPropertyOp2
 70
     1
102
RTVSPropertyOp3
 70
     1
102
RTVSPropertyOp4
 70
     1
102
RTVSPropertyOp5
 70
     1
102
RTVSPropertyOp6
 70
     1
102
RTVSPropertyOp7
 70
     1
102
RTVSPropertyOp8
 70
     1
102
RTVSPropertyOp9
 70
     1
102
RTVSPropertyOp10
 70
     1
102
RTVSPropertyOp11
 70
     1
102
RTVSPropertyOp12
 70
     1
102
RTVSPropertyOp13
 70
     1
102
RTVSPropertyOp14
 70
     1
102
RTVSPropertyOp15
 70
     1
102
RTVSPropertyOp16
 70
     1
102
RTVSPropertyOp17
 70
     1
102
RTVSPropertyOp18
 70
     1
102
RTVSPropertyOp19
 70
     1
102
RTVSPropertyOp20
 70
     1
102
RTVSPropertyOp21
 70
     1
102
RTVSPropertyOp22
 70
     1
102
RTVSPropertyOp23
 70
     1
102
RTVSPropertyOp24
 70
     1
102
RTVSPropertyOp25
 70
     1
102
RTVSPropertyOp26
 70
     1
102
RTVSPropertyOp27
 70
     1
102
RTVSPropertyOp28
 70
     1
102
RTVSPropertyOp29
 70
     1
102
RTVSPropertyOp30
 70
     1
102
RTVSPropertyOp31
 70
     1
102
RTVSPropertyOp32
 70
     1
  0
XRECORD
  5
31F
102
{ACAD_REACTORS
330
31E
102
}
330
31E
100
AcDbXrecord
280
     1
102
RTVSPropertyOp0
 70
     1
102
RTVSPropertyOp1
 70
     1
102
RTVSPropertyOp2
 70
     1
102
RTVSPropertyOp3
 70
     1
102
RTVSPropertyOp4
 70
     1
102
RTVSPropertyOp5
 70
     1
102
RTVSPropertyOp6
 70
     1
102
RTVSPropertyOp7
 70
     1
102
RTVSPropertyOp8
 70
     1
102
RTVSPropertyOp9
 70
     1
102
RTVSPropertyOp10
 70
     1
102
RTVSPropertyOp11
 70
     1
102
RTVSPropertyOp12
 70
     1
102
RTVSPropertyOp13
 70
     1
102
RTVSPropertyOp14
 70
     1
102
RTVSPropertyOp15
 70
     1
102
RTVSPropertyOp16
 70
     1
102
RTVSPropertyOp17
 70
     1
102
RTVSPropertyOp18
 70
     1
102
RTVSPropertyOp19
 70
     1
102
RTVSPropertyOp20
 70
     1
102
RTVSPropertyOp21
 70
     1
102
RTVSPropertyOp22
 70
     1
102
RTVSPropertyOp23
 70
     1
102
RTVSPropertyOp24
 70
     1
102
RTVSPropertyOp25
 70
     1
102
RTVSPropertyOp26
 70
     1
102
RTVSPropertyOp27
 70
     1
102
RTVSPropertyOp28
 70
     1
102
RTVSPropertyOp29
 70
     1
102
RTVSPropertyOp30
 70
     1
102
RTVSPropertyOp31
 70
     1
102
RTVSPropertyOp32
 70
     1
  0
XRECORD
  5
321
102
{ACAD_REACTORS
330
320
102
}
330
320
100
AcDbXrecord
280
     1
102
RTVSPropertyOp0
 70
     1
102
RTVSPropertyOp1
 70
     1
102
RTVSPropertyOp2
 70
     1
102
RTVSPropertyOp3
 70
     1
102
RTVSPropertyOp4
 70
     1
102
RTVSPropertyOp5
 70
     1
102
RTVSPropertyOp6
 70
     1
102
RTVSPropertyOp7
 70
     1
102
RTVSPropertyOp8
 70
     1
102
RTVSPropertyOp9
 70
     1
102
RTVSPropertyOp10
 70
     1
102
RTVSPropertyOp11
 70
     1
102
RTVSPropertyOp12
 70
     1
102
RTVSPropertyOp13
 70
     1
102
RTVSPropertyOp14
 70
     1
102
RTVSPropertyOp15
 70
     1
102
RTVSPropertyOp16
 70
     1
102
RTVSPropertyOp17
 70
     1
102
RTVSPropertyOp18
 70
     1
102
RTVSPropertyOp19
 70
     1
102
RTVSPropertyOp20
 70
     1
102
RTVSPropertyOp21
 70
     1
102
RTVSPropertyOp22
 70
     1
102
RTVSPropertyOp23
 70
     1
102
RTVSPropertyOp24
 70
     1
102
RTVSPropertyOp25
 70
     1
102
RTVSPropertyOp26
 70
     1
102
RTVSPropertyOp27
 70
     1
102
RTVSPropertyOp28
 70
     1
102
RTVSPropertyOp29
 70
     1
102
RTVSPropertyOp30
 70
     1
102
RTVSPropertyOp31
 70
     1
102
RTVSPropertyOp32
 70
     1
  0
XRECORD
  5
335
102
{ACAD_REACTORS
330
334
102
}
330
334
100
AcDbXrecord
280
     1
102
RTVSPropertyOp0
 70
     1
102
RTVSPropertyOp1
 70
     1
102
RTVSPropertyOp2
 70
     1
102
RTVSPropertyOp3
 70
     1
102
RTVSPropertyOp4
 70
     1
102
RTVSPropertyOp5
 70
     1
102
RTVSPropertyOp6
 70
     1
102
RTVSPropertyOp7
 70
     1
102
RTVSPropertyOp8
 70
     1
102
RTVSPropertyOp9
 70
     1
102
RTVSPropertyOp10
 70
     1
102
RTVSPropertyOp11
 70
     1
102
RTVSPropertyOp12
 70
     1
102
RTVSPropertyOp13
 70
     1
102
RTVSPropertyOp14
 70
     1
102
RTVSPropertyOp15
 70
     1
102
RTVSPropertyOp16
 70
     1
102
RTVSPropertyOp17
 70
     1
102
RTVSPropertyOp18
 70
     1
102
RTVSPropertyOp19
 70
     1
102
RTVSPropertyOp20
 70
     1
102
RTVSPropertyOp21
 70
     1
102
RTVSPropertyOp22
 70
     1
102
RTVSPropertyOp23
 70
     1
102
RTVSPropertyOp24
 70
     1
102
RTVSPropertyOp25
 70
     1
102
RTVSPropertyOp26
 70
     1
102
RTVSPropertyOp27
 70
     1
102
RTVSPropertyOp28
 70
     1
102
RTVSPropertyOp29
 70
     1
102
RTVSPropertyOp30
 70
     1
102
RTVSPropertyOp31
 70
     1
102
RTVSPropertyOp32
 70
     1
  0
XRECORD
  5
32B
102
{ACAD_REACTORS
330
32A
102
}
330
32A
100
AcDbXrecord
280
     1
102
RTVSPropertyOp0
 70
     1
102
RTVSPropertyOp1
 70
     1
102
RTVSPropertyOp2
 70
     1
102
RTVSPropertyOp3
 70
     1
102
RTVSPropertyOp4
 70
     1
102
RTVSPropertyOp5
 70
     1
102
RTVSPropertyOp6
 70
     1
102
RTVSPropertyOp7
 70
     1
102
RTVSPropertyOp8
 70
     1
102
RTVSPropertyOp9
 70
     1
102
RTVSPropertyOp10
 70
     1
102
RTVSPropertyOp11
 70
     1
102
RTVSPropertyOp12
 70
     1
102
RTVSPropertyOp13
 70
     1
102
RTVSPropertyOp14
 70
     1
102
RTVSPropertyOp15
 70
     1
102
RTVSPropertyOp16
 70
     1
102
RTVSPropertyOp17
 70
     1
102
RTVSPropertyOp18
 70
     1
102
RTVSPropertyOp19
 70
     1
102
RTVSPropertyOp20
 70
     1
102
RTVSPropertyOp21
 70
     1
102
RTVSPropertyOp22
 70
     1
102
RTVSPropertyOp23
 70
     1
102
RTVSPropertyOp24
 70
     1
102
RTVSPropertyOp25
 70
     1
102
RTVSPropertyOp26
 70
     1
102
RTVSPropertyOp27
 70
     1
102
RTVSPropertyOp28
 70
     1
102
RTVSPropertyOp29
 70
     1
102
RTVSPropertyOp30
 70
     1
102
RTVSPropertyOp31
 70
     1
102
RTVSPropertyOp32
 70
     1
  0
XRECORD
  5
333
102
{ACAD_REACTORS
330
332
102
}
330
332
100
AcDbXrecord
280
     1
102
RTVSPropertyOp0
 70
     1
102
RTVSPropertyOp1
 70
     1
102
RTVSPropertyOp2
 70
     1
102
RTVSPropertyOp3
 70
     1
102
RTVSPropertyOp4
 70
     1
102
RTVSPropertyOp5
 70
     1
102
RTVSPropertyOp6
 70
     1
102
RTVSPropertyOp7
 70
     1
102
RTVSPropertyOp8
 70
     1
102
RTVSPropertyOp9
 70
     1
102
RTVSPropertyOp10
 70
     1
102
RTVSPropertyOp11
 70
     1
102
RTVSPropertyOp12
 70
     1
102
RTVSPropertyOp13
 70
     1
102
RTVSPropertyOp14
 70
     1
102
RTVSPropertyOp15
 70
     1
102
RTVSPropertyOp16
 70
     1
102
RTVSPropertyOp17
 70
     1
102
RTVSPropertyOp18
 70
     1
102
RTVSPropertyOp19
 70
     1
102
RTVSPropertyOp20
 70
     1
102
RTVSPropertyOp21
 70
     1
102
RTVSPropertyOp22
 70
     1
102
RTVSPropertyOp23
 70
     1
102
RTVSPropertyOp24
 70
     1
102
RTVSPropertyOp25
 70
     1
102
RTVSPropertyOp26
 70
     1
102
RTVSPropertyOp27
 70
     1
102
RTVSPropertyOp28
 70
     1
102
RTVSPropertyOp29
 70
     1
102
RTVSPropertyOp30
 70
     1
102
RTVSPropertyOp31
 70
     1
102
RTVSPropertyOp32
 70
     1
  0
ENDSEC
  0
EOF
